Katerina za 1800EUR

Solo los usuarios registrados pueden ver los links de descarga. ¡Registrate ahora, ES GRATIS!

Rok vydani: 2011
Delka: 15
Bitrate/kodek:
General #0
Celý název a cesta : RychlyPrachy 48.Katerina - Sestapadesaty Ulovek (Praha -

Ulice Volkova-04.01.2011).wmv
Format : Windows Media
File size : 234 MiB
Duration : 15mn 7s
Overall bit rate mode : Constant
Overall bit rate : 2 160 Kbps
Maximum Overall bit rate : 2 170 Kbps
Encoded date : UTC 2011-01-04 22:03:32.380
SfOriginalFPS : 300000

Video
ID : 2
Format : VC-1
Format profile : MP@ML
Codec ID : WMV3
Codec ID/Info : Windows Media Video 9
Codec ID/Hint : WMV3
Description of the codec : Windows Media Video 9 - Professional
Duration : 15mn 7s
Bit rate mode : Constant
Bit rate : 2 086 Kbps
Width : 640 pixels
Height : 480 pixels
Display aspect ratio : 4:3
Frame rate : 30.000 fps
Resolution : 24 bits
Scan type : Progressive
Bits/(Pixel*Frame) : 0.226
Stream size : 226 MiB (97%)
Language : Czech

Audio
ID : 1
Format : WMA2
Format profile : L1
Codec ID : 161
Codec ID/Info : Windows Media Audio 2
Description of the codec : Windows Media Audio 9.2 - 64 kbps, 44 kHz, stereo (A/V)

1-pass CBR
Duration : 15mn 7s
Bit rate mode : Constant
Bit rate : 64.0 Kbps
Channel(s) : 2 channels
Sampling rate : 44.1 KHz
Resolution : 16 bits
Stream size : 6.93 MiB (3%)
Language : Czech

Akce „prodaná manželka“ nabírá neskutečné obrátky a řeknu Vám, že to začíná být pořádný
rokenrol.
O pravdivosti mého tvrzení se záhy přesvědčíte na vlastní bulvy v dnešním příběhu ze života
zadlužených
českých domácností. Tentokrát jsem mohl vyrazit v klídku „sockou“, protože si mě pozval
manželský pár z
Prahy. Když jsem se přihlásil na dané adrese a vstoupil do jámy lvové, nestačil jsem se
divit.
Prvním překvapením byl téměř patnáctiletý věkový rozdíl mezi čtyřicetiletým Standou, tak se
jmenoval
on a šestadvacetiletou Kateřinou, což bylo její jméno. Když nad tím tak přemýšlím, tak to už
však
dnes není ničím neobvyklým. Jsem holt ještě ze staré školy. Druhým, velice příjemným
překvapením,
byla sama Katka, která se ukázala jako nádherná kočička, jaké se rodí jen u nás v Čechách a
a Moravě.
Třetím překvapením, nebo spíš šokem, byl pravý důvod, proč si mě pozvali do bytu. Představte
si,
že jim nešlo o těch padesát táců, ale o to, že Stanislav je tak trošku úchyl, který se rád
dívá,
jak mu někdo cizí šoustá manželku. To je petarda, co?! Odborně se tomu říká kandaulismus a v
tomto
případě se Standovi podařil mistrovský kousek, když spojil příjemné ukájení s velmi
užitečným
vyděláním 1800EUR,- rychlých prachů. Ovšem vítězem jsem byl já, protože možnost za*censored*
si s tak
nádhernou ženskou, jako je Kateřina, si normálně za peníze nekoupíte. Posuďte sami!



Código:
http://www.fileserve.com/file/Rpdx7s7

Código:
http://hotfile.com/dl/94667980/f7c34cb/katarina.rar.html

Código:
http://letitbit.net/download/26420.2481bfd06ac1566950b67588f1c2/katarina.rar.html

Código:
http://www.filesonic.com/file/53151537/katarina.rar

Código:
http://goldfile.eu/l5cjzeknolme/katarina.rar.html