Les Debutantes De Sabrina Ricci (2005)

Solo los usuarios registrados pueden ver los links de descarga. ¡Registrate ahora, ES GRATIS!

Código:
Complete name                            : Les Debutantes De Sabrina Ricci.avi
Format                                   : AVI
Format/Info                              : Audio Video Interleave
File size                                : 637 MiB
Duration                                 : 1h 16mn

Overall bit rate                         : 1 164 Kbps
Writing application                      : Lavf51.12.2

Video
ID                                       : 0
Format                                   : xvid
Codec ID                                 : xvid
Duration                                 : 1h 16mn
Bit rate                                 : 1 024 Kbps
Width                                    : 640 pixels
Height                                   : 480 pixels
Display aspect ratio                     : 4:3
Frame rate                               : 25.000 fps
Bits/(Pixel*Frame)                       : 0.133
Stream size                              : 560 MiB (88%)

Audio
ID                                       : 1
Format                                   : MPEG Audio
Format version                           : Version 1
Format profile                           : Layer 3
Mode                                     : Joint stereo
Codec ID                                 : 55
Codec ID/Hint                            : MP3
Duration                                 : 1h 16mn
Bit rate mode                            : Constant
Bit rate                                 : 128 Kbps
Channel(s)                               : 2 channels
Sampling rate                            : 44.1 KHz
Compression mode                         : Lossy
Stream size                              : 70.0 MiB (11%)
Alignment                                : Aligned on interleaves
Interleave, duration                     : 26 ms (0.65 video frame)
Solo los usuarios registrados pueden ver los links de descarga. ¡Registrate ahora, ES GRATIS!

Solo los usuarios registrados pueden ver los links de descarga. ¡Registrate ahora, ES GRATIS!


Código:
http://freakshare.com/files/emvq312n/TeenBanana.Les-Debutantes-De-Sabrina-Ricci.avi.html
Código:
http://www.netload.in/datei443ZSFnYio/TeenBanana.Les Debutantes De Sabrina Ricci.avi.htm
Código:
http://depositfiles.com/files/b86zkgo7i
Código:
http://ul.to/uolem2ik/TeenBanana.Les Debutantes De Sabrina Ricci.avi