Big Tits At Work 14 (2012)

Solo los usuarios registrados pueden ver los links de descarga. ¡Registrate ahora, ES GRATIS!

Starring: Francesca Le, Eve Lawrence, Chanel Preston, Nikki Sexx, Veronica Avluv, Gia Dimarco, Ariella Ferrera, Ava Addams, Abella Anderson, Vanilla DeVille



Solo los usuarios registrados pueden ver los links de descarga. ¡Registrate ahora, ES GRATIS! Solo los usuarios registrados pueden ver los links de descarga. ¡Registrate ahora, ES GRATIS! Solo los usuarios registrados pueden ver los links de descarga. ¡Registrate ahora, ES GRATIS!

Código:
Complete name                            : Big Tits At Work 14 (2012).1.avi
Format                                   : AVI
Format/Info                              : Audio Video Interleave
File size                                : 699 MiB
Duration                                 : 1h 29mn
Overall bit rate mode                    : Variable
Overall bit rate                         : 1 096 Kbps
Writing application                      : VirtualDubMod 1.5.10.2 (build 2540/release)
Writing library                          : VirtualDubMod build 2540/release

Video
ID                                       : 0
Format                                   : MPEG-4 Visual
Format profile                           : Advanced Simple@L5
Format settings, BVOP                    : 2
Format settings, QPel                    : No
Format settings, GMC                     : No warppoints
Format settings, Matrix                  : Default (H.263)
Codec ID                                 : XVID
Codec ID/Hint                            : XviD
Duration                                 : 1h 29mn
Bit rate                                 : 967 Kbps
Width                                    : 624 pixels
Height                                   : 352 pixels
Display aspect ratio                     : 16:9
Frame rate                               : 29.970 fps
Color space                              : YUV
Chroma subsampling                       : 4:2:0
Bit depth                                : 8 bits
Scan type                                : Progressive
Compression mode                         : Lossy
Bits/(Pixel*Frame)                       : 0.147
Stream size                              : 617 MiB (88%)
Writing library                          : XviD 1.3.0.dev55

Audio
ID                                       : 1
Format                                   : MPEG Audio
Format version                           : Version 1
Format profile                           : Layer 3
Mode                                     : Joint stereo
Mode extension                           : MS Stereo
Codec ID                                 : 55
Codec ID/Hint                            : MP3
Duration                                 : 1h 29mn
Bit rate mode                            : Variable
Bit rate                                 : 114 Kbps
Nominal bit rate                         : 128 Kbps
Channel(s)                               : 2 channels
Sampling rate                            : 48.0 KHz
Compression mode                         : Lossy
Stream size                              : 73.0 MiB (10%)
Alignment                                : Aligned on interleaves
Interleave, duration                     : 24 ms (0.72 video frame)
Interleave, preload duration             : 162 ms
Writing library                          : LAME3.99r
Encoding settings                        : -m j -V 4 -q 2 -lowpass 17 --abr 128
Solo los usuarios registrados pueden ver los links de descarga. ¡Registrate ahora, ES GRATIS!


Complete name : Big Tits At Work 14 (2012).2.avi
Format : AVI
Format/Info : Audio Video Interleave
File size : 697 MiB
Duration : 1h 55mn
Overall bit rate mode : Variable
Overall bit rate : 844 Kbps
Writing application : VirtualDubMod 1.5.10.2 (build 2540/release)
Writing library : VirtualDubMod build 2540/release

Video
ID : 0
Format : MPEG-4 Visual
Format profile : Advanced Simple@L5
Format settings, BVOP : 2
Format settings, QPel : No
Format settings, GMC : No warppoints
Format settings, Matrix : Default (H.263)
Codec ID : XVID
Codec ID/Hint : XviD
Duration : 1h 55mn
Bit rate : 718 Kbps
Width : 624 pixels
Height : 352 pixels
Display aspect ratio : 16:9
Frame rate : 29.970 fps
Color space : YUV
Chroma subsampling : 4:2:0
Bit depth : 8 bits
Scan type : Progressive
Compression mode : Lossy
Bits/(Pixel*Frame) : 0.109
Stream size : 592 MiB (85%)
Writing library : XviD 1.3.0.dev55

Audio
ID : 1
Format : MPEG Audio
Format version : Version 1
Format profile : Layer 3
Mode : Joint stereo
Mode extension : MS Stereo
Codec ID : 55
Codec ID/Hint : MP3
Duration : 1h 55mn
Bit rate mode : Variable
Bit rate : 112 Kbps
Channel(s) : 2 channels
Sampling rate : 48.0 KHz
Compression mode : Lossy
Stream size : 93.0 MiB (13%)
Alignment : Aligned on interleaves
Interleave, duration : 24 ms (0.72 video frame)
Interleave, preload duration : 500 ms

Solo los usuarios registrados pueden ver los links de descarga. ¡Registrate ahora, ES GRATIS!


Código:
http://freakshare.com/files/kgalr34s/TeenBanana.Big-Tits-At-Work-14--2012-.1.avi.html
Código:
http://freakshare.com/files/xuvn908l/TeenBanana.Big-Tits-At-Work-14--2012-.2.avi.html
Código:
http://depositfiles.com/files/j7mejyv6e
Código:
http://depositfiles.com/files/f5y3qytkf
Código:
http://ul.to/h975dt02/TeenBanana.Big Tits At Work 14 (2012).1.avi
Código:
http://ul.to/qumtogfu/TeenBanana.Big Tits At Work 14 (2012).2.avi
Descargar Aqui