Les Cuissardes (1978)

Solo los usuarios registrados pueden ver los links de descarga. ¡Registrate ahora, ES GRATIS!

Director: Michel Lemoine
Starring: Dani?le Troger, Dominique Troyes, Genevi?ve Hue, Muriel Matter, Sabine Layer, Virginie Love, Viviane D?al, Gabriel Pontello, Herv? Amalou, John Lautard, Olivier Mathot.


Código:
Complete name                            : Les_Cuissardes_tepe .mp4
Format                                   : MPEG-4
Format profile                           : Base Media
Codec ID                                 : isom
File size                                : 705 MiB
Duration                                 : 1h 17mn
Overall bit rate mode                    : Variable
Overall bit rate                         : 1 274 Kbps
Encoded date                             : UTC 2011-01-02 08:19:10
Tagged date                              : UTC 2011-01-02 08:19:10

Video
ID                                       : 1
Format                                   : AVC
Format/Info                              : Advanced Video Codec
Format profile                           : High@L3.0
Format settings, CABAC                   : No
Format settings, ReFrames                : 1 frame
Codec ID                                 : avc1
Codec ID/Info                            : Advanced Video Coding
Duration                                 : 1h 17mn
Bit rate                                 : 1 152 Kbps
Maximum bit rate                         : 3 497 Kbps
Width                                    : 640 pixels
Height                                   : 480 pixels
Display aspect ratio                     : 4:3
Frame rate mode                          : Constant
Frame rate                               : 25.000 fps
Color space                              : YUV
Chroma subsampling                       : 4:2:0
Bit depth                                : 8 bits
Scan type                                : Progressive
Bits/(Pixel*Frame)                       : 0.150
Stream size                              : 634 MiB (90%)
Writing library                          : x264 core 80 r1378+57 6f6b50a

Audio
ID                                       : 2
Format                                   : AAC
Format/Info                              : Advanced Audio Codec
Format profile                           : LC
Codec ID                                 : 40
Duration                                 : 1h 17mn
Bit rate mode                            : Variable
Bit rate                                 : 126 Kbps
Maximum bit rate                         : 165 Kbps
Channel(s)                               : 2 channels
Channel positions                        : Front: L R
Sampling rate                            : 44.1 KHz
Compression mode                         : Lossy
Stream size                              : 69.5 MiB (10%)
Encoded date                             : UTC 2011-01-02 08:20:02
Tagged date                              : UTC 2011-01-02 08:20:10
Solo los usuarios registrados pueden ver los links de descarga. ¡Registrate ahora, ES GRATIS!

Solo los usuarios registrados pueden ver los links de descarga. ¡Registrate ahora, ES GRATIS!


Código:
http://freakshare.com/files/tmhh1ah9/HdpornerLes_Cuissardes_tepe-Downmovies.mp4.html
Código:
http://www.netload.in/dateiJvjIXsPvVK/HdpornerLes_Cuissardes_tepe Downmovies.mp4.htm
Código:
http://depositfiles.com/files/cevj8d8zb
Solo los usuarios registrados pueden ver los links de descarga. ¡Registrate ahora, ES GRATIS!

Código:
http://extabit.com/file/27au2o9sjnma0/HdpornerLes_Cuissardes_tepe Downmovies.mp4