Office Girls 2 (2009)



Category Girl-Girl, All Girl, Lesbian, Vignettes
Director Viv Thomas
Starring Lisa, Cindy Hope, Peaches, Jo, Vera, Vivien, Nella, Hannah Hunter, Ginger B.

The girls are back, and this time they're working overtime! Six scenes, nine girls and some brilliant extra features complete a sequel which has been well worth the wait. Packed with amazing moments of real lesbian sex mixed with charm and humour, in the classic style of the VivThomas.com Studio The Office Girls 2 is a top-notch DVD which will appeal to everyone.Office romances, sexual harassment in the work-place, managers taking advantage of the young girls, back-scratching interviews, business trips, hotel rooms, closed-door meetings, it's about to kick off!



Studio Viv Thomas
DVD Encoding All Regions
All Time Product Rank 869
CD Universe Part number 7848017
Discs 1
Release Date Jan 22, 2009

Complete name : 1.ViTs.Office.Girls.2.Bloopers.avi
Format : AVI
Format/Info : Audio Video Interleave
File size : 98.1 MiB
Duration : 4mn 22s
Overall bit rate : 3 134 Kbps
Movie name : OFFICEGIRLS2.Title2.DVDRip
Director : Admin Brandon
Writing application : Lavf51.19.0
Original source form/Name : OFFICEGIRLS2

Video
ID : 0
Format : MPEG-4 Visual
Format profile : Simple@L3
Format settings, BVOP : No
Format settings, QPel : No
Format settings, GMC : No warppoints
Format settings, Matrix : Default (H.263)
Codec ID : XVID
Codec ID/Hint : XviD
Duration : 4mn 22s
Bit rate : 2 931 Kbps
Width : 768 pixels
Height : 432 pixels
Display aspect ratio : 16:9
Frame rate : 25.000 fps
Color space : YUV
Chroma subsampling : 4:2:0
Bit depth : 8 bits
Scan type : Progressive
Compression mode : Lossy
Bits/(Pixel*Frame) : 0.353
Stream size : 91.8 MiB (94%)
Writing library : XviD 1.1.2 (UTC 2006-11-01)

Audio
ID : 1
Format : AC-3
Format/Info : Audio Coding 3
Mode extension : CM (complete main)
Codec ID : 2000
Duration : 4mn 22s
Bit rate mode : Constant
Bit rate : 192 Kbps
Channel(s) : 2 channels
Channel positions : Front: L R
Sampling rate : 48.0 KHz
Bit depth : 16 bits
Compression mode : Lossy
Stream size : 6.01 MiB (6%)
Alignment : Aligned on interleaves
Interleave, duration : 32 ms (0.80 video frame)
Interleave, preload duration : 32 ms

Solo los usuarios registrados pueden ver los links de descarga. ¡Registrate ahora, ES GRATIS!

Download:

Código:
http://freakshare.com/files/lhd39yp5/1.ViTs.Office.Girls.2.Bloopers.avi.html
Código:
http://www.netload.in/datei9H0TKWSRGE/1.ViTs.Office.Girls.2.Bloopers.avi.htm
Código:
http://depositfiles.com/files/6r10twae0/1.ViTs.Office.Girls.2.Bloopers.avi
Código:
http://extabit.com/file/27a2zlbah51cm/1.ViTs.Office.Girls.2.Bloopers.avi