Unfaithful (2007)



Category Girl-Girl, All Girl, Feature, Plot Based, Lesbian
Director Viv Thomas
Starring Lisa, Peaches, Nelly

Lisa seems to have made the perfect catch. Her lover, Nelly is nine years younger than her, beautiful, funny, committed, and completely in love with her. But something's just not right. In-between bouts of intense, passionate love-making, Lisa is hiding a secret guilt which she can't bear to reveal.

Filmed over three days, Unfaithful brings together two real-life lesbians in a beautifully conceived film. We see them love completely naturally, as every intimate moment is captured with the craft of VivThomas.

Every kiss is made with real passion, every orgasm is absolutely real as pussies are devoured with a genuine hunger, these girls drink each other?s juices and share the nectar of life.

You won?t see anything quite as original as this film. A must have for true fans of lesbian erotica.



Studio Viv Thomas
DVD Encoding All Regions
All Time Product Rank 318
CD Universe Part number 7317187
Discs 1
Release Date May 16, 2007

Complete name : 1.ViTs.Unfaithful.CD1.avi
Format : AVI
Format/Info : Audio Video Interleave
File size : 700 MiB
Duration : 39mn 21s
Overall bit rate mode : Variable
Overall bit rate : 2 485 Kbps
Writing application : VirtualDubMod 1.5.4.1 (build 2178/release)
Writing library : VirtualDubMod build 2178/release

Video
ID : 0
Format : MPEG-4 Visual
Format profile : Advanced Simple@L5
Format settings, BVOP : 1
Format settings, QPel : No
Format settings, GMC : No warppoints
Format settings, Matrix : Custom
Codec ID : XVID
Codec ID/Hint : XviD
Duration : 39mn 21s
Bit rate : 2 351 Kbps
Width : 640 pixels
Height : 368 pixels
Display aspect ratio : 16:9
Frame rate : 25.000 fps
Color space : YUV
Chroma subsampling : 4:2:0
Bit depth : 8 bits
Scan type : Progressive
Compression mode : Lossy
Bits/(Pixel*Frame) : 0.399
Stream size : 662 MiB (95%)
Writing library : XviD 1.2.0SMP (UTC 2006-01-08)

Complete name : 1.ViTs.Unfaithful.CD2.avi
Format : AVI
Format/Info : Audio Video Interleave
File size : 700 MiB
Duration : 51mn 7s
Overall bit rate mode : Variable
Overall bit rate : 1 916 Kbps
Writing application : VirtualDubMod 1.5.4.1 (build 2178/release)
Writing library : VirtualDubMod build 2178/release

Video
ID : 0
Format : MPEG-4 Visual
Format profile : Advanced Simple@L5
Format settings, BVOP : 1
Format settings, QPel : No
Format settings, GMC : No warppoints
Format settings, Matrix : Custom
Codec ID : XVID
Codec ID/Hint : XviD
Duration : 51mn 7s
Bit rate : 1 782 Kbps
Width : 640 pixels
Height : 368 pixels
Display aspect ratio : 16:9
Frame rate : 25.000 fps
Color space : YUV
Chroma subsampling : 4:2:0
Bit depth : 8 bits
Scan type : Progressive
Compression mode : Lossy
Bits/(Pixel*Frame) : 0.303
Stream size : 652 MiB (93%)
Writing library : XviD 1.2.0SMP (UTC 2006-01-08)

Screens:

Solo los usuarios registrados pueden ver los links de descarga. ¡Registrate ahora, ES GRATIS! Solo los usuarios registrados pueden ver los links de descarga. ¡Registrate ahora, ES GRATIS!

DOwnload:

Solo los usuarios registrados pueden ver los links de descarga. ¡Registrate ahora, ES GRATIS!
Solo los usuarios registrados pueden ver los links de descarga. ¡Registrate ahora, ES GRATIS!

Código:
http://www.netload.in/dateiyqUk9Sg9dz/1.ViTs.Unfaithful.CD1.avi.htm
Código:
http://www.netload.in/dateiujPF1SGzoh/1.ViTs.Unfaithful.CD2.avi.htm
Código:
http://extabit.com/file/27a2zlbs91m52/1.ViTs.Unfaithful.CD1.avi
Código:
http://extabit.com/file/27a2zlbwj8era/1.ViTs.Unfaithful.CD2.avi
Código:
http://freakshare.com/files/l99jlgxi/1.ViTs.Unfaithful.CD1.avi.html
http://freakshare.com/files/z8l6o3up/1.ViTs.Unfaithful.CD2.avi.html
Descargar Aqui