Sole Collector (2007)



Category Fetish, Girl-Girl, All Girl, Plot Based, Lesbian, Feet
Director Viv Thomas
Starring Sophie Moone, Sandy, Kylie, Stella Stevens, Kathy Moore

A pair of priceless heels... An obsessive collector... Three days of hardcore leg sex!

Kathy Moore is a collector of rare and expensive high-heels. The Dahto Black Diamond heels are priceless, and she'd do anything to get them! With her assistant Stella Stevens in tow all she has to do is spend three days at the house of Lady Sandy and the shoes are hers. But of course, she's not the only collector who wants the shoes... and what does Sandy have in mind for the next three days?



Studio Viv Thomas
DVD Encoding All Regions
All Time Product Rank 5,219
CD Universe Part number 7546285
Discs 1
Release Date Nov 03, 2007

Complete name : 1.ViTs.The.Sole.Collector.CD1.rmvb
Format : RealMedia
File size : 241 MiB
Duration : 1h 13mn
Overall bit rate : 449 Kbps

Video
ID : 1
Format : RealVideo 4
Codec ID : RV40
Codec ID/Info : Based on AVC (H.264), Real Player 9
Duration : 1h 13mn
Bit rate : 385 Kbps
Width : 464 pixels
Height : 352 pixels
Display aspect ratio : 4:3
Frame rate : 25.000 fps
Bits/(Pixel*Frame) : 0.094
Stream size : 204 MiB (84%)

Audio
ID : 0
Format : Cooker
Codec ID : cook
Codec ID/Info : Based on G.722.1, Real Player 6
Duration : 1h 13mn
Bit rate : 64.1 Kbps
Channel(s) : 2 channels
Sampling rate : 44.1 KHz
Bit depth : 16 bits
Stream size : 33.9 MiB (14%)

Complete name : 1.ViTs.The.Sole.Collector.CD2.rmvb
Format : RealMedia
File size : 243 MiB
Duration : 1h 14mn
Overall bit rate : 450 Kbps

Video
ID : 1
Format : RealVideo 4
Codec ID : RV40
Codec ID/Info : Based on AVC (H.264), Real Player 9
Duration : 1h 14mn
Bit rate : 385 Kbps
Width : 464 pixels
Height : 352 pixels
Display aspect ratio : 4:3
Frame rate : 25.000 fps
Bits/(Pixel*Frame) : 0.094
Stream size : 205 MiB (84%)

Audio
ID : 0
Format : Cooker
Codec ID : cook
Codec ID/Info : Based on G.722.1, Real Player 6
Duration : 1h 14mn
Bit rate : 64.1 Kbps
Channel(s) : 2 channels
Sampling rate : 44.1 KHz
Bit depth : 16 bits
Stream size : 34.1 MiB (14%)

Solo los usuarios registrados pueden ver los links de descarga. ¡Registrate ahora, ES GRATIS! Solo los usuarios registrados pueden ver los links de descarga. ¡Registrate ahora, ES GRATIS!

Download:

Código:
http://freakshare.com/files/f6rzyh5o/1.ViTs.The.Sole.Collector.CD1.rmvb.html
http://freakshare.com/files/wdl41zl7/1.ViTs.The.Sole.Collector.CD2.rmvb.html
Solo los usuarios registrados pueden ver los links de descarga. ¡Registrate ahora, ES GRATIS!
Solo los usuarios registrados pueden ver los links de descarga. ¡Registrate ahora, ES GRATIS!

Código:
http://netload.in/dateizK2eVCVYZu/1.ViTs.The.Sole.Collector.CD1.rmvb.htm
Código:
http://www.netload.in/dateitL7Ok1Hvrh/1.ViTs.The.Sole.Collector.CD2.rmvb.htm
Código:
http://extabit.com/file/27a2zlbs5alfa/1.ViTs.The.Sole.Collector.CD1.rmvb
Código:
http://extabit.com/file/27a2zlbs4nro6/1.ViTs.The.Sole.Collector.CD2.rmvb
Descargar Aqui