Six Days With Vera 1 (2005)



Category Girl-Girl, All Girl, Lesbian
Director Viv Thomas
Starring Sophie Moone, Sandra Shine, Bambi, Vera

This hardcore feature stars some of the most beautiful girls from all the top-shelf mags around the world! One of the most intimate and real films of its kind, each scene starts slowly with long deep kisses, up to intense, trembling, genuine orgasms. All the girls were selected by Vera, and as her real-life friends they do on camera with each other they would normally never do!



Studio Viv Thomas
DVD Encoding All Regions
All Time Product Rank 12,223
CD Universe Part number 7279097
Discs 1
Release Date Dec 08, 2005

Complete name : 1.ViTs.Six.Days.with.Vera.Vol.1.avi
Format : AVI
Format/Info : Audio Video Interleave
File size : 894 MiB
Duration : 1h 38mn
Overall bit rate mode : Variable
Overall bit rate : 1 274 Kbps
Writing application : VirtualDubMod 1.5.4.1 (build 2178/release)
Writing library : VirtualDubMod build 2178/release

Video
ID : 0
Format : MPEG-4 Visual
Format profile : Advanced Simple@L5
Format settings, BVOP : 1
Format settings, QPel : No
Format settings, GMC : No warppoints
Format settings, Matrix : Custom
Codec ID : XVID
Codec ID/Hint : XviD
Duration : 1h 38mn
Bit rate : 1 147 Kbps
Width : 720 pixels
Height : 544 pixels
Display aspect ratio : 4:3
Frame rate : 25.000 fps
Color space : YUV
Chroma subsampling : 4:2:0
Bit depth : 8 bits
Scan type : Progressive
Compression mode : Lossy
Bits/(Pixel*Frame) : 0.117
Stream size : 805 MiB (90%)
Writing library : XviD 1.1.0 Beta2 (UTC 2005-04-04)

Audio
ID : 1
Format : MPEG Audio
Format version : Version 1
Format profile : Layer 3
Mode : Joint stereo
Codec ID : 55
Codec ID/Hint : MP3
Duration : 1h 38mn
Bit rate mode : Variable
Bit rate : 120 Kbps
Channel(s) : 2 channels
Sampling rate : 48.0 KHz
Compression mode : Lossy
Stream size : 84.3 MiB (9%)
Alignment : Split accross interleaves
Interleave, duration : 80 ms (2.00 video frames)
Interleave, preload duration : 500 ms
Writing library : LAME3.92

Solo los usuarios registrados pueden ver los links de descarga. ¡Registrate ahora, ES GRATIS!

Download:

Código:
http://freakshare.com/files/kti6oorm/1.ViTs.Six.Days.with.Vera.Vol.1.avi.html
Solo los usuarios registrados pueden ver los links de descarga. ¡Registrate ahora, ES GRATIS!

Código:
http://www.netload.in/dateiLTsiYBxE9p/1.ViTs.Six.Days.with.Vera.Vol.1.avi.htm
Código:
http://extabit.com/file/27a2zlbje0dqu/1.ViTs.Six.Days.with.Vera.Vol.1.avi
Descargar Aqui