Sam Gets Her Girl Season 1 (1998)

Solo los usuarios registrados pueden ver los links de descarga. ¡Registrate ahora, ES GRATIS!

Starring
Sammy Jayne, Sophie, Monique, Eva, Candy, Tina and more.
Description
A Lezlove World Exclusive!! These are the softcore broadcast episodes.

Solo los usuarios registrados pueden ver los links de descarga. ¡Registrate ahora, ES GRATIS!


Complete name : 1.ViTs.Sam.Gets.Her.Girl.Season.1.CD1.avi
Format : AVI
Format/Info : Audio Video Interleave
File size : 698 MiB
Duration : 1h 15mn
Overall bit rate : 1 286 Kbps
Writing library : VirtualDub build 13870/release

Video
ID : 0
Format : MPEG-4 Visual
Format settings, BVOP : 1
Format settings, QPel : No
Format settings, GMC : No warppoints
Format settings, Matrix : Default (H.263)
Muxing mode : Packed bitstream
Codec ID : DX50
Codec ID/Hint : DivX 5
Duration : 1h 15mn
Bit rate : 1 179 Kbps
Width : 640 pixels
Height : 480 pixels
Display aspect ratio : 4:3
Frame rate : 29.970 fps
Color space : YUV
Chroma subsampling : 4:2:0
Bit depth : 8 bits
Scan type : Progressive
Compression mode : Lossy
Bits/(Pixel*Frame) : 0.128
Stream size : 640 MiB (92%)
Writing library : DivX 5.1.1 (Maupiti) (UTC 2003-11-19)

Audio
ID : 1
Format : MPEG Audio
Format version : Version 1
Format profile : Layer 3
Mode : Joint stereo
Mode extension : Intensity Stereo + MS Stereo
Codec ID : 55
Codec ID/Hint : MP3
Duration : 1h 15mn
Bit rate mode : Constant
Bit rate : 96.0 Kbps
Channel(s) : 2 channels
Sampling rate : 48.0 KHz
Compression mode : Lossy
Stream size : 52.1 MiB (7%)
Alignment : Split accross interleaves
Interleave, duration : 33 ms (1.00 video frame)
Interleave, preload duration : 431 ms

Solo los usuarios registrados pueden ver los links de descarga. ¡Registrate ahora, ES GRATIS!

Download:

Código:
http://freakshare.com/files/bb65wfoq/1.ViTs.Sam.Gets.Her.Girl.Season.1.CD1.avi.html
Solo los usuarios registrados pueden ver los links de descarga. ¡Registrate ahora, ES GRATIS!

Código:
http://www.netload.in/dateiZM1egEzqcf/1.ViTs.Sam.Gets.Her.Girl.Season.1.CD1.avi.htm
Código:
http://depositfiles.com/files/5mh4ra1g6/1.ViTs.Sam.Gets.Her.Girl.Season.1.CD1.avi
Código:
http://extabit.com/file/27a2zlbev2uuu/1.ViTs.Sam.Gets.Her.Girl.Season.1.CD1.avi