Leisure Suit Ralphy XXX (2012)



Director Urick Hunt
Starring Lisa Ann, Katsuni, Ron Jeremy, Mika Tan, Ava Devine, Lucy Lee, Priya Rai, Liza Del Sierra, Nicole Aniston


Uncut And Uncensored!

Ralphy is a 30-year old man who lives in his mom's basement and has not yet lost his virginity. Having grown weary of his lonely existence; he decides to go to College to experience what he has not lived before, and tries to find the woman of his fucking dreams. Ralph's quest involves multiple possible women: Ava, seedy looking prostitute; Liza, a foreign exchange student of low moral fiver, Lisa, the dean of the College who is faithful to her job; and Katsumi, a bathing beauty and Ralph's ultimate bitchy boss. Tons of hot fucking action in this XXX parody. Enjoy!



Código:
Complete name                            : Leisure.Suite.Ralphy.1.avi
Format                                   : AVI
Format/Info                              : Audio Video Interleave
File size                                : 698 MiB
Duration                                 : 1h 20mn
Overall bit rate mode                    : Variable
Overall bit rate                         : 1 219 Kbps
Writing application                      : VirtualDubMod 1.5.10.2 (build 2540/release)
Writing library                          : VirtualDubMod build 2540/release

Video
ID                                       : 0
Format                                   : MPEG-4 Visual
Format profile                           : Advanced Simple@L5
Format settings, BVOP                    : 3
Format settings, QPel                    : No
Format settings, GMC                     : No warppoints
Format settings, Matrix                  : Default (MPEG)
Codec ID                                 : XVID
Codec ID/Hint                            : XviD
Duration                                 : 1h 20mn
Bit rate                                 : 1 077 Kbps
Width                                    : 592 pixels
Height                                   : 336 pixels
Display aspect ratio                     : 16:9
Frame rate                               : 29.970 fps
Color space                              : YUV
Chroma subsampling                       : 4:2:0
Bit depth                                : 8 bits
Scan type                                : Progressive
Compression mode                         : Lossy
Bits/(Pixel*Frame)                       : 0.181
Stream size                              : 617 MiB (88%)
Writing library                          : XviD 1.2.1 (UTC 2008-12-04)

Audio
ID                                       : 1
Format                                   : MPEG Audio
Format version                           : Version 1
Format profile                           : Layer 3
Mode                                     : Joint stereo
Mode extension                           : MS Stereo
Codec ID                                 : 55
Codec ID/Hint                            : MP3
Duration                                 : 1h 20mn
Bit rate mode                            : Variable
Bit rate                                 : 128 Kbps
Channel(s)                               : 2 channels
Sampling rate                            : 48.0 KHz
Compression mode                         : Lossy
Stream size                              : 73.0 MiB (10%)
Alignment                                : Aligned on interleaves
Interleave, duration                     : 24 ms (0.72 video frame)
Interleave, preload duration             : 502 ms
Writing library                          : LAME3.90.
Encoding settings                        : -m j -V 4 -q 2 -lowpass 17.6 --abr 128
Solo los usuarios registrados pueden ver los links de descarga. ¡Registrate ahora, ES GRATIS!

Solo los usuarios registrados pueden ver los links de descarga. ¡Registrate ahora, ES GRATIS!


Código:
Complete name                            : Leisure.Suite.Ralphy.2.avi
Format                                   : AVI
Format/Info                              : Audio Video Interleave
File size                                : 696 MiB
Duration                                 : 1h 3mn
Overall bit rate mode                    : Variable
Overall bit rate                         : 1 535 Kbps
Writing application                      : VirtualDubMod 1.5.10.2 (build 2540/release)
Writing library                          : VirtualDubMod build 2540/release

Video
ID                                       : 0
Format                                   : MPEG-4 Visual
Format profile                           : Advanced Simple@L5
Format settings, BVOP                    : 2
Format settings, QPel                    : No
Format settings, GMC                     : No warppoints
Format settings, Matrix                  : Default (MPEG)
Codec ID                                 : XVID
Codec ID/Hint                            : XviD
Duration                                 : 1h 3mn
Bit rate                                 : 1 394 Kbps
Width                                    : 592 pixels
Height                                   : 336 pixels
Display aspect ratio                     : 16:9
Frame rate                               : 29.970 fps
Color space                              : YUV
Chroma subsampling                       : 4:2:0
Bit depth                                : 8 bits
Scan type                                : Progressive
Compression mode                         : Lossy
Bits/(Pixel*Frame)                       : 0.234
Stream size                              : 632 MiB (91%)
Writing library                          : XviD 1.2.1 (UTC 2008-12-04)

Audio
ID                                       : 1
Format                                   : MPEG Audio
Format version                           : Version 1
Format profile                           : Layer 3
Mode                                     : Joint stereo
Mode extension                           : MS Stereo
Codec ID                                 : 55
Codec ID/Hint                            : MP3
Duration                                 : 1h 3mn
Bit rate mode                            : Variable
Bit rate                                 : 128 Kbps
Channel(s)                               : 2 channels
Sampling rate                            : 48.0 KHz
Compression mode                         : Lossy
Stream size                              : 57.4 MiB (8%)
Alignment                                : Aligned on interleaves
Interleave, duration                     : 24 ms (0.72 video frame)
Interleave, preload duration             : 493 ms
Solo los usuarios registrados pueden ver los links de descarga. ¡Registrate ahora, ES GRATIS!

Solo los usuarios registrados pueden ver los links de descarga. ¡Registrate ahora, ES GRATIS!


Código:
Complete name                            : Leisure.Suite.Ralphy.3.avi
Format                                   : AVI
Format/Info                              : Audio Video Interleave
File size                                : 698 MiB
Duration                                 : 1h 11mn
Overall bit rate mode                    : Variable
Overall bit rate                         : 1 373 Kbps
Writing application                      : VirtualDubMod 1.5.10.2 (build 2540/release)
Writing library                          : VirtualDubMod build 2540/release

Video
ID                                       : 0
Format                                   : MPEG-4 Visual
Format profile                           : Advanced Simple@L5
Format settings, BVOP                    : 2
Format settings, QPel                    : No
Format settings, GMC                     : No warppoints
Format settings, Matrix                  : Default (MPEG)
Codec ID                                 : XVID
Codec ID/Hint                            : XviD
Duration                                 : 1h 11mn
Bit rate                                 : 1 235 Kbps
Width                                    : 592 pixels
Height                                   : 336 pixels
Display aspect ratio                     : 16:9
Frame rate                               : 29.970 fps
Color space                              : YUV
Chroma subsampling                       : 4:2:0
Bit depth                                : 8 bits
Scan type                                : Progressive
Compression mode                         : Lossy
Bits/(Pixel*Frame)                       : 0.207
Stream size                              : 628 MiB (90%)
Writing library                          : XviD 1.2.1 (UTC 2008-12-04)

Audio
ID                                       : 1
Format                                   : MPEG Audio
Format version                           : Version 1
Format profile                           : Layer 3
Mode                                     : Joint stereo
Mode extension                           : MS Stereo
Codec ID                                 : 55
Codec ID/Hint                            : MP3
Duration                                 : 1h 11mn
Bit rate mode                            : Variable
Bit rate                                 : 128 Kbps
Channel(s)                               : 2 channels
Sampling rate                            : 48.0 KHz
Compression mode                         : Lossy
Stream size                              : 62.8 MiB (9%)
Alignment                                : Aligned on interleaves
Interleave, duration                     : 24 ms (0.72 video frame)
Interleave, preload duration             : 533 ms
Solo los usuarios registrados pueden ver los links de descarga. ¡Registrate ahora, ES GRATIS!

Solo los usuarios registrados pueden ver los links de descarga. ¡Registrate ahora, ES GRATIS!


Código:
http://freakshare.com/files/y23xrp1d/TeenBanana.Leisure.Suite.Ralphy.1.avi.html
Código:
http://freakshare.com/files/jshzx1fi/TeenBanana.Leisure.Suite.Ralphy.2.avi.html
Código:
http://freakshare.com/files/0hblniqc/TeenBanana.Leisure.Suite.Ralphy.3.avi.html
Código:
http://www.netload.in/dateie6bsbKN9ki/TeenBanana.Leisure.Suite.Ralphy.1.avi.htm
Código:
http://www.netload.in/dateiXxms7crg8C/TeenBanana.Leisure.Suite.Ralphy.2.avi.htm
Código:
http://www.netload.in/datei1MSRXWs32l/TeenBanana.Leisure.Suite.Ralphy.3.avi.htm
Código:
http://ul.to/l47aiknk/TeenBanana.Leisure.Suite.Ralphy.1.avi
Código:
http://ul.to/nin65j64/TeenBanana.Leisure.Suite.Ralphy.2.avi
Código:
http://ul.to/j1rv6qpp/TeenBanana.Leisure.Suite.Ralphy.3.avi
Código:
http://depositfiles.com/files/9ysgsxqjx
Código:
http://depositfiles.com/files/6od5ff80a
Código:
http://depositfiles.com/files/5l9rxi6ln
Código:
http://extabit.com/file/27a2gyh5xbvta/TeenBanana.Leisure.Suite.Ralphy.2.avi