Vixen (1968)

Solo los usuarios registrados pueden ver los links de descarga. ¡Registrate ahora, ES GRATIS!


Starring: Erica Gavin (Vixen Palmer) Garth Pillsbury (Tom Palmer) Harrison Page (Niles) Jon Evans (Judd) Vincene Wallace (Janet King) Robert Aiken (Dave King)

Vixen lives in a Canadian mountain resort with her naive pilot husband. While he's away flying in tourists, she gets it on with practically everybody including a husband and his wife, and even her biker brother. She is openly racist, and she makes it clear that she won't do the wild thing with her brother's biker friend, who is black.


Solo los usuarios registrados pueden ver los links de descarga. ¡Registrate ahora, ES GRATIS!
Código:
Complete name                            : Russ Meyer's Vixen (1968)  .avi
Format                                   : AVI
Format/Info                              : Audio Video Interleave
File size                                : 699 MiB
Duration                                 : 1h 10mn
Overall bit rate mode                    : Variable
Overall bit rate                         : 1 381 Kbps
Movie name                               : Vixen!
Director                                 : Russ Meyer
Subject                                  : Vixen!
Writing application                      : Nandub v1.0rc2
Writing library                          : Nandub build 1852/release
Copyright                                : QiX

Video
ID                                       : 0
Format                                   : MPEG-4 Visual
Format settings, BVOP                    : No
Format settings, QPel                    : No
Format settings, GMC                     : No warppoints
Format settings, Matrix                  : Default (MPEG)
Codec ID                                 : XVID
Codec ID/Hint                            : XviD
Duration                                 : 1h 10mn
Bit rate                                 : 1 278 Kbps
Width                                    : 576 pixels
Height                                   : 432 pixels
Display aspect ratio                     : 4:3
Frame rate                               : 25.000 fps
Color space                              : YUV
Chroma subsampling                       : 4:2:0
Bit depth                                : 8 bits
Scan type                                : Progressive
Compression mode                         : Lossy
Bits/(Pixel*Frame)                       : 0.205
Stream size                              : 647 MiB (93%)

Audio
ID                                       : 1
Format                                   : MPEG Audio
Format version                           : Version 1
Format profile                           : Layer 3
Codec ID                                 : 55
Codec ID/Hint                            : MP3
Duration                                 : 1h 10mn
Bit rate mode                            : Variable
Bit rate                                 : 90.3 Kbps
Nominal bit rate                         : 96.0 Kbps
Channel(s)                               : 1 channel
Sampling rate                            : 48.0 KHz
Compression mode                         : Lossy
Stream size                              : 45.7 MiB (7%)
Alignment                                : Aligned on interleaves
Interleave, duration                     : 24 ms (0.60 video frame)
Interleave, preload duration             : 501 ms
Writing library                          : LAME3.92 
Encoding settings                        : -m m -V 4 -q 0 -lowpass 19 --abr 96
Solo los usuarios registrados pueden ver los links de descarga. ¡Registrate ahora, ES GRATIS!



Código:
http://www.netload.in/datei21czj4fTm2/HdpornerRuss Meyer\'s Vixen (1968) Downmovies.avi.htm
Solo los usuarios registrados pueden ver los links de descarga. ¡Registrate ahora, ES GRATIS!

Código:
http://depositfiles.com/files/7jecjgegr
Código:
http://extabit.com/file/27au2o8fte6zc/HdpornerRuss Meyer's Vixen (1968)  Downmovies.avi
Descargar Aqui