Anal Teens 2 (2011)

Solo los usuarios registrados pueden ver los links de descarga. ¡Registrate ahora, ES GRATIS!

1h:7mn/696 MiB/608x306/16:9



Solo los usuarios registrados pueden ver los links de descarga. ¡Registrate ahora, ES GRATIS! Solo los usuarios registrados pueden ver los links de descarga. ¡Registrate ahora, ES GRATIS! Solo los usuarios registrados pueden ver los links de descarga. ¡Registrate ahora, ES GRATIS!


Código:
Complete name                            : Anal Teens 2 (2011)cd1.avi
Format                                   : AVI
Format/Info                              : Audio Video Interleave
File size                                : 696 MiB
Duration                                 : 1h 7mn
Overall bit rate mode                    : Variable
Overall bit rate                         : 1 436 Kbps
Writing application                      : VirtualDubMod 1.5.10.2 (build 2540/release)
Writing library                          : VirtualDubMod build 2540/release

Video
ID                                       : 0
Format                                   : MPEG-4 Visual
Format profile                           : Advanced Simple@L5
Format settings, BVOP                    : 3
Format settings, QPel                    : No
Format settings, GMC                     : No warppoints
Format settings, Matrix                  : Default (MPEG)
Codec ID                                 : XVID
Codec ID/Hint                            : XviD
Duration                                 : 1h 7mn
Bit rate                                 : 1 302 Kbps
Width                                    : 608 pixels
Height                                   : 336 pixels
Display aspect ratio                     : 16:9
Frame rate                               : 29.970 fps
Color space                              : YUV
Chroma subsampling                       : 4:2:0
Bit depth                                : 8 bits
Scan type                                : Progressive
Compression mode                         : Lossy
Bits/(Pixel*Frame)                       : 0.213
Stream size                              : 631 MiB (91%)
Writing library                          : XviD 1.2.1 (UTC 2008-12-04)

Audio
ID                                       : 1
Format                                   : MPEG Audio
Format version                           : Version 1
Format profile                           : Layer 3
Mode                                     : Joint stereo
Codec ID                                 : 55
Codec ID/Hint                            : MP3
Duration                                 : 1h 7mn
Bit rate mode                            : Variable
Bit rate                                 : 121 Kbps
Nominal bit rate                         : 128 Kbps
Channel(s)                               : 2 channels
Sampling rate                            : 48.0 KHz
Compression mode                         : Lossy
Stream size                              : 58.3 MiB (8%)
Alignment                                : Aligned on interleaves
Interleave, duration                     : 24 ms (0.72 video frame)
Interleave, preload duration             : 152 ms
Writing library                          : LAME3.90.
Encoding settings                        : -m j -V 4 -q 2 -lowpass 17.6 --abr 128
Solo los usuarios registrados pueden ver los links de descarga. ¡Registrate ahora, ES GRATIS!

Solo los usuarios registrados pueden ver los links de descarga. ¡Registrate ahora, ES GRATIS!


Código:
Complete name                            : Anal Teens 2 (2011)cd2.avi
Format                                   : AVI
Format/Info                              : Audio Video Interleave
File size                                : 698 MiB
Duration                                 : 1h 9mn
Overall bit rate mode                    : Variable
Overall bit rate                         : 1 400 Kbps
Writing application                      : VirtualDubMod 1.5.10.2 (build 2540/release)
Writing library                          : VirtualDubMod build 2540/release

Video
ID                                       : 0
Format                                   : MPEG-4 Visual
Format profile                           : Advanced Simple@L5
Format settings, BVOP                    : 2
Format settings, QPel                    : No
Format settings, GMC                     : No warppoints
Format settings, Matrix                  : Default (MPEG)
Codec ID                                 : XVID
Codec ID/Hint                            : XviD
Duration                                 : 1h 9mn
Bit rate                                 : 1 265 Kbps
Width                                    : 608 pixels
Height                                   : 336 pixels
Display aspect ratio                     : 16:9
Frame rate                               : 29.970 fps
Color space                              : YUV
Chroma subsampling                       : 4:2:0
Bit depth                                : 8 bits
Scan type                                : Progressive
Compression mode                         : Lossy
Bits/(Pixel*Frame)                       : 0.207
Stream size                              : 631 MiB (90%)
Writing library                          : XviD 1.2.1 (UTC 2008-12-04)

Audio
ID                                       : 1
Format                                   : MPEG Audio
Format version                           : Version 1
Format profile                           : Layer 3
Mode                                     : Joint stereo
Mode extension                           : MS Stereo
Codec ID                                 : 55
Codec ID/Hint                            : MP3
Duration                                 : 1h 9mn
Bit rate mode                            : Variable
Bit rate                                 : 121 Kbps
Channel(s)                               : 2 channels
Sampling rate                            : 48.0 KHz
Compression mode                         : Lossy
Stream size                              : 60.3 MiB (9%)
Alignment                                : Aligned on interleaves
Interleave, duration                     : 24 ms (0.72 video frame)
Interleave, preload duration             : 486 ms
Solo los usuarios registrados pueden ver los links de descarga. ¡Registrate ahora, ES GRATIS!

Solo los usuarios registrados pueden ver los links de descarga. ¡Registrate ahora, ES GRATIS!


Código:
http://extabit.com/file/27a2gyh5xbm8u/TeenBanana.Anal Teens 2 (2011)cd1.avi
Código:
http://extabit.com/file/27a2gyh5xbm9a/TeenBanana.Anal Teens 2 (2011)cd2.avi
Código:
http://freakshare.com/files/etgbfmba/TeenBanana.Anal-Teens-2--2011-cd1.avi.html
Código:
http://freakshare.com/files/e889yt33/TeenBanana.Anal-Teens-2--2011-cd2.avi.html
Código:
http://www.netload.in/dateiUK3Zo6B0zb/TeenBanana.Anal Teens 2 (2011)cd1.avi.htm
Código:
http://ul.to/chgdgfkq/TeenBanana.Anal Teens 2 (2011)cd1.avi
Código:
http://ul.to/lleem944/TeenBanana.Anal Teens 2 (2011)cd2.avi
Código:
http://depositfiles.com/files/ebw30urut
Código:
http://depositfiles.com/files/cd7xi2iys
Descargar Aqui