Tortured Females (1965)

Solo los usuarios registrados pueden ver los links de descarga. ¡Registrate ahora, ES GRATIS! Solo los usuarios registrados pueden ver los links de descarga. ¡Registrate ahora, ES GRATIS!

Genre: Crime | Horror
IMDB rating: 5.6/10
Directed by: Arch Hudson
Starring: Denine Dubois, Jud Barry and Rita Penn

Plot: Unaware of the local Hooded Strangler lurking around her door, poor ?Helen Doe? decides to visit her aunt but, instead, winds up at the ?House of Horror on the Hill.? There, she and six other TORTURED FEMALES are held by white slavers and persuaded to accept ?a glamorous life of easy virtue? through beatings, whippings and being forced to watch go-go dancers(?!). Worse, adding to the madness is nothing less than ? are you ready? ? ?a half-witted monkey-chattering Mongolian hunchback.? Honest

Código:
Complete name                            : Tortured Females (1965)  .avi
Format                                   : AVI
Format/Info                              : Audio Video Interleave
File size                                : 700 MiB
Duration                                 : 1h 0mn
Overall bit rate mode                    : Variable
Overall bit rate                         : 1 628 Kbps
Writing application                      : VirtualDubMod 1.5.4.1 (build 2178/release)
Writing library                          : VirtualDubMod build 2178/release

Video
ID                                       : 0
Format                                   : MPEG-4 Visual
Format profile                           : Advanced Simple@L5
Format settings, BVOP                    : 1
Format settings, QPel                    : No
Format settings, GMC                     : No warppoints
Format settings, Matrix                  : Custom
Codec ID                                 : XVID
Codec ID/Hint                            : XviD
Duration                                 : 1h 0mn
Bit rate                                 : 1 508 Kbps
Width                                    : 720 pixels
Height                                   : 544 pixels
Display aspect ratio                     : 4:3
Frame rate                               : 23.976 fps
Color space                              : YUV
Chroma subsampling                       : 4:2:0
Bit depth                                : 8 bits
Scan type                                : Progressive
Compression mode                         : Lossy
Bits/(Pixel*Frame)                       : 0.161
Stream size                              : 649 MiB (93%)
Writing library                          : XviD 1.2.0.dev47 (UTC 2006-11-01)

Audio
ID                                       : 1
Format                                   : MPEG Audio
Format version                           : Version 1
Format profile                           : Layer 3
Mode                                     : Joint stereo
Mode extension                           : MS Stereo
Codec ID                                 : 55
Codec ID/Hint                            : MP3
Duration                                 : 1h 0mn
Bit rate mode                            : Variable
Bit rate                                 : 107 Kbps
Nominal bit rate                         : 128 Kbps
Channel(s)                               : 2 channels
Sampling rate                            : 48.0 KHz
Compression mode                         : Lossy
Stream size                              : 46.0 MiB (7%)
Alignment                                : Aligned on interleaves
Interleave, duration                     : 24 ms (0.58 video frame)
Interleave, preload duration             : 172 ms
Writing library                          : LAME3.97 
Encoding settings                        : -m j -V 4 -q 2 -lowpass 17 --abr 128
Language                                 : English
Solo los usuarios registrados pueden ver los links de descarga. ¡Registrate ahora, ES GRATIS!

Solo los usuarios registrados pueden ver los links de descarga. ¡Registrate ahora, ES GRATIS!


Solo los usuarios registrados pueden ver los links de descarga. ¡Registrate ahora, ES GRATIS!


How to Download ???
1. Click on the download links
2. Wait for few seconds and then click on button SKIP AD


Free Download with Mediafire or Jumbofiles:

Código:
http://q.gs/yeF7
http://q.gs/yeF9
http://q.gs/yeFA
http://q.gs/yeFC
Código:
http://q.gs/yeFI
http://q.gs/yeFJ
http://q.gs/yeFK
http://q.gs/yeFL
Descargar Aqui