Tomatoes (1968)

Solo los usuarios registrados pueden ver los links de descarga. ¡Registrate ahora, ES GRATIS!

Basic Info:
Title: Tomatoes
Year: 1968-1970
Director: Joel Poete
Cast: Donna Nation ,Stephanie Sarver ,Heather Starr ,Anna Travers

Yeah, people were probably trying to make porn a few minutes after Dauguerre first walked out of the darkroom. And I love those sleazy 1930s exploitation classics like Sex Madness and Reefer Madness. But for me, porn in the U.S. pretty much began when adult bookstore owners started importing Lasse Braun film loops and running them in old nickelodeons. On the Left Coast, early porn folks were grinding out shorties as well, and even a few "feature" films. These never made to the bigger movie theaters like Mona and Behind the Green Door, but instead were underground hits that didn't post the showtimes--the reel restarted after they could rewind it and do some basic cleaning. No one really knows when Tomatoes first debuted, some say 1968, one reel says 1970, no one knows for sure. The druggy laid-back feel probably places it in the Bay Area. It may not be the first feature porno ever, but it's one of the earliest smutflix American perverts put out.

Plot:
Simple but not often duplcated: Upstanding Stanley is hired by Mr. Watson to collect the rent in his apartment building stuffed with insatiable harlots. While Stanley starts out as a conscientious young man, the whores continue to prefer defiling Stanley instead of breaking out the checkbook. Each new door represents a trip further into his sexual freedom (or moral laziness, depending on your view). By the end of the film, Stanley is high as a kite, and leading the whole building in a big orgy. Orgies were popular back then, that's what I read in Penthouse. I don't know why that died off, changing times I suppose.

And yes! You can still experience late 1960s pornography with all its mod music, bushy cunts and Beach Boy's haircuts. Pay a visit to Something Weird Video and pick up Bucky's Dragon Art Theatre Triple XXX Double Feature, vol. 13.



Código:
Complete name                            : Tomatoes (1968) .avi
Format                                   : AVI
Format/Info                              : Audio Video Interleave
File size                                : 236 MiB
Duration                                 : 1h 11mn
Overall bit rate                         : 460 Kbps

Video
ID                                       : 0
Format                                   : MPEG-4 Visual
Format settings, BVOP                    : 1
Format settings, QPel                    : Yes
Format settings, GMC                     : 2 warppoints
Format settings, Matrix                  : Default (H.263)
Muxing mode                              : Packed bitstream
Codec ID                                 : DX50
Codec ID/Hint                            : DivX 5
Duration                                 : 1h 11mn
Bit rate                                 : 384 Kbps
Width                                    : 352 pixels
Height                                   : 288 pixels
Display aspect ratio                     : 1.222
Frame rate                               : 29.970 fps
Standard                                 : PAL
Color space                              : YUV
Chroma subsampling                       : 4:2:0
Bit depth                                : 8 bits
Scan type                                : Progressive
Compression mode                         : Lossy
Bits/(Pixel*Frame)                       : 0.126
Stream size                              : 198 MiB (84%)
Writing library                          : DivX 5.0.2 (UTC 2002-05-16)

Audio
ID                                       : 1
Format                                   : MPEG Audio
Format version                           : Version 2
Format profile                           : Layer 3
Mode                                     : Joint stereo
Mode extension                           : Intensity Stereo + MS Stereo
Codec ID                                 : 55
Codec ID/Hint                            : MP3
Duration                                 : 1h 11mn
Bit rate mode                            : Constant
Bit rate                                 : 64.0 Kbps
Channel(s)                               : 2 channels
Sampling rate                            : 22.05 KHz
Compression mode                         : Lossy
Stream size                              : 32.8 MiB (14%)
Alignment                                : Split accross interleaves
Interleave, duration                     : 33 ms (1.00 video frame)
Interleave, preload duration             : 466 ms
Solo los usuarios registrados pueden ver los links de descarga. ¡Registrate ahora, ES GRATIS!

Solo los usuarios registrados pueden ver los links de descarga. ¡Registrate ahora, ES GRATIS!


Solo los usuarios registrados pueden ver los links de descarga. ¡Registrate ahora, ES GRATIS!


How to Download ???
1. Click on the download links
2. Wait for few seconds and then click on button SKIP AD


Free Download with Mediafire or Jumbofiles:

Código:
http://q.gs/yeEm
http://q.gs/yeEo
Código:
http://q.gs/yeEr
http://q.gs/yeEs