Hitch Hiking Hippies (1965)

Solo los usuarios registrados pueden ver los links de descarga. ¡Registrate ahora, ES GRATIS!

Studio Historic Erotica
Release Date Sep 02, 1978
Category Classic
Starring: Katie Jerkins, Albert Rocks, Alicia Caterson, Angel Hastings, Bill Summers, Julian More, Tabitha Jone, Charles Mayson, Gabriel Medow, Samantha Depie, Abbey Ray, Leonarda Timis, Sherry Easse, Paul Jenner

Scene 1
In this vintage porn clip, 2 hippie chicks hitchhike and are picked up in a Volkswagen van. They park, and the redheaded girl sucks one of the guys cocks in the back of the van. She plays with his balls while she blows him, and he thrusts his cock in and out of her mouth while the driver and blonde girl look on from the front seat. He gets closer to cumming as she sucks him off harder and faster, and she jerks out his hot load of cum all over her hand while he moans and smiles in pleasure. These hitch hikers know how to pay somebody back for a lift.
Katie Jerkins, Albert Rocks
Scene 2
Hitch Hiking Hippies Having A ThreesomeHitch Hiking Hippies Having A ThreesomeHitch Hiking Hippies Having A ThreesomeHitch Hiking Hippies Having A ThreesomeHitch Hiking Hippies Having A ThreesomeHitch Hiking Hippies Having A ThreesomeDownload this Scene
Add to Favorites Bill picked up Alicia Caterson and Angel Hastings who were hitch hiking. He took them back to his house and they started to party. The booze and weed flowed and soon they were naked and one of them was riding his cock while the other rode his face. He bent Alicia over and fucked her good from behind then he switched it up and bent Angel over. He went back and forth between them taking turns fucking them both then he laid back and let them both use their mouths and hands to make him cum. He shot his hot load and they licked him clean.
Alicia Caterson, Angel Hastings, Bill Summers
Scene 3
Sexy Hitchhikers Put Out For A Free RideSexy Hitchhikers Put Out For A Free RideSexy Hitchhikers Put Out For A Free RideSexy Hitchhikers Put Out For A Free RideSexy Hitchhikers Put Out For A Free RideSexy Hitchhikers Put Out For A Free RideDownload this Scene
Add to Favorites In this excellent 1970s fuck vid, a couple of pretty blond hitchhikers get taken back home by a pair of older studs for a hardcore foursome fuck. These eager blondes don't have any money, and they know that if they want to get a free ride, they're going to have to ride some cock! Most of this video is filmed in close-ups, either of the girls' faces or of the cocks sliding in and out of the hairy pussies, so it can be a little bit difficult to tell exactly what is going on. There is also an excellent soundtrack with plenty of hot groans and moans! Rest assured that both of these sweet pussies get fucked long, hard and deep.
Julian More, Katie Jerkins, Tabitha Jone, Charles Mayson, Gabriel Medow
Scene 4
There are good and bad things about sex in the '60sThere are good and bad things about sex in the '60sThere are good and bad things about sex in the '60sThere are good and bad things about sex in the '60sThere are good and bad things about sex in the '60sThere are good and bad things about sex in the '60sDownload this Scene
Add to Favorites This clip is a flashback to an earlier time in the mid to late 1960s when hippies like Samantha Depie were a part of the Free Love movement in the United States. The great news back then is that you could bang lots of slutty women who felt empowered by the fact that men wanted to have sex with them. The bad news is that back then hairy pussy was in fashion and that means having to spit out pubes any time you lick their twats.
Samantha Depie

Código:
Complete name                            : Hitch Hiking Hippies (1965) .avi
Format                                   : AVI
Format/Info                              : Audio Video Interleave
File size                                : 542 MiB
Duration                                 : 59mn 42s
Overall bit rate                         : 1 269 Kbps

Video
ID                                       : 0
Format                                   : MPEG-4 Visual
Format settings, BVOP                    : No
Format settings, QPel                    : No
Format settings, GMC                     : No warppoints
Format settings, Matrix                  : Default (H.263)
Codec ID                                 : DIVX
Codec ID/Info                            : Project Mayo
Codec ID/Hint                            : DivX 4
Duration                                 : 59mn 42s
Source duration                          : 59mn 42s
Bit rate                                 : 1 199 Kbps
Width                                    : 480 pixels
Height                                   : 360 pixels
Display aspect ratio                     : 4:3
Frame rate                               : 29.970 fps
Color space                              : YUV
Chroma subsampling                       : 4:2:0
Bit depth                                : 8 bits
Scan type                                : Progressive
Compression mode                         : Lossy
Bits/(Pixel*Frame)                       : 0.232
Stream size                              : 512 MiB (94%)
Writing library                          : avc2.0.11.1110

Audio
ID                                       : 1
Format                                   : MPEG Audio
Format version                           : Version 1
Format profile                           : Layer 3
Mode                                     : Joint stereo
Mode extension                           : MS Stereo
Codec ID                                 : 55
Codec ID/Hint                            : MP3
Duration                                 : 59mn 41s
Bit rate mode                            : Constant
Bit rate                                 : 56.0 Kbps
Channel(s)                               : 2 channels
Sampling rate                            : 48.0 KHz
Compression mode                         : Lossy
Stream size                              : 23.9 MiB (4%)
Alignment                                : Aligned on interleaves
Interleave, duration                     : 24 ms (0.72 video frame)
Solo los usuarios registrados pueden ver los links de descarga. ¡Registrate ahora, ES GRATIS!

Solo los usuarios registrados pueden ver los links de descarga. ¡Registrate ahora, ES GRATIS!


Solo los usuarios registrados pueden ver los links de descarga. ¡Registrate ahora, ES GRATIS!


How to Download ???
1. Click on the download links
2. Wait for few seconds and then click on button SKIP AD


Free Download with Mediafire or Jumbofiles:

Código:
http://q.gs/ydDJ
http://q.gs/ydDK
http://q.gs/ydDL
Or:

Código:
http://q.gs/ydDd
http://q.gs/ydDe
http://q.gs/ydDg