Big Booty Shake Down (2012)

Solo los usuarios registrados pueden ver los links de descarga. ¡Registrate ahora, ES GRATIS!


Release date: February 13, 2012
Featuring: Katja Kassin, Alexis Texas, Kristina Rose, London Keyes, Jynx Maze


Run Time: 2 Hrs 30 Mins, BTS: 30 Mins Shot In HD,16x9 Anamorphic Widescreen Multiple Chapter Stops, Photo Gallery, No Regional Coding, Cumshot Recap

The BIGGER the Booty, the BIGGER the Shake! 5 of the Best Booties In the Biz!

Solo los usuarios registrados pueden ver los links de descarga. ¡Registrate ahora, ES GRATIS! Solo los usuarios registrados pueden ver los links de descarga. ¡Registrate ahora, ES GRATIS! Solo los usuarios registrados pueden ver los links de descarga. ¡Registrate ahora, ES GRATIS!

Código:
Complete name                            : Big.Booty.Shake.Downcd1.avi
Format                                   : AVI
Format/Info                              : Audio Video Interleave
File size                                : 700 MiB
Duration                                 : 1h 14mn
Overall bit rate mode                    : Variable
Overall bit rate                         : 1 307 Kbps
Writing library                          : VirtualDub build 33848/release
segm                                     :  

Video
ID                                       : 0
Format                                   : MPEG-4 Visual
Format profile                           : Advanced Simple@L5
Format settings, BVOP                    : 2
Format settings, QPel                    : No
Format settings, GMC                     : No warppoints
Format settings, Matrix                  : Default (MPEG)
Codec ID                                 : XVID
Codec ID/Hint                            : XviD
Duration                                 : 1h 14mn
Bit rate                                 : 1 158 Kbps
Width                                    : 576 pixels
Height                                   : 320 pixels
Display aspect ratio                     : 16:9
Frame rate                               : 29.970 fps
Color space                              : YUV
Chroma subsampling                       : 4:2:0
Bit depth                                : 8 bits
Scan type                                : Progressive
Compression mode                         : Lossy
Bits/(Pixel*Frame)                       : 0.210
Stream size                              : 620 MiB (89%)
Writing library                          : XviD 64

Audio
ID                                       : 1
Format                                   : MPEG Audio
Format version                           : Version 1
Format profile                           : Layer 3
Mode                                     : Joint stereo
Mode extension                           : MS Stereo
Codec ID                                 : 55
Codec ID/Hint                            : MP3
Duration                                 : 1h 14mn
Bit rate mode                            : Variable
Bit rate                                 : 136 Kbps
Nominal bit rate                         : 128 Kbps
Channel(s)                               : 2 channels
Sampling rate                            : 48.0 KHz
Compression mode                         : Lossy
Stream size                              : 72.2 MiB (10%)
Alignment                                : Aligned on interleaves
Interleave, duration                     : 24 ms (0.72 video frame)
Interleave, preload duration             : 930 ms
Writing library                          : LAME3.95 
Encoding settings                        : -m j -V 4 -q 3 -lowpass 17.5 --abr 128
Solo los usuarios registrados pueden ver los links de descarga. ¡Registrate ahora, ES GRATIS!

Código:
Complete name                            : Big.Booty.Shake.Downcd2.avi
Format                                   : AVI
Format/Info                              : Audio Video Interleave
File size                                : 696 MiB
Duration                                 : 1h 20mn
Overall bit rate mode                    : Variable
Overall bit rate                         : 1 204 Kbps
Writing library                          : VirtualDub build 33848/release

Video
ID                                       : 0
Format                                   : MPEG-4 Visual
Format profile                           : Advanced Simple@L5
Format settings, BVOP                    : 2
Format settings, QPel                    : No
Format settings, GMC                     : No warppoints
Format settings, Matrix                  : Default (MPEG)
Codec ID                                 : XVID
Codec ID/Hint                            : XviD
Duration                                 : 1h 20mn
Bit rate                                 : 1 053 Kbps
Width                                    : 576 pixels
Height                                   : 320 pixels
Display aspect ratio                     : 16:9
Frame rate                               : 29.970 fps
Color space                              : YUV
Chroma subsampling                       : 4:2:0
Bit depth                                : 8 bits
Scan type                                : Progressive
Compression mode                         : Lossy
Bits/(Pixel*Frame)                       : 0.191
Stream size                              : 609 MiB (88%)
Writing library                          : XviD 64

Audio
ID                                       : 1
Format                                   : MPEG Audio
Format version                           : Version 1
Format profile                           : Layer 3
Mode                                     : Joint stereo
Mode extension                           : MS Stereo
Codec ID                                 : 55
Codec ID/Hint                            : MP3
Duration                                 : 1h 20mn
Bit rate mode                            : Variable
Bit rate                                 : 136 Kbps
Channel(s)                               : 2 channels
Sampling rate                            : 48.0 KHz
Compression mode                         : Lossy
Stream size                              : 79.0 MiB (11%)
Alignment                                : Aligned on interleaves
Interleave, duration                     : 24 ms (0.72 video frame)
Interleave, preload duration             : 1032 ms
Solo los usuarios registrados pueden ver los links de descarga. ¡Registrate ahora, ES GRATIS!


Código:
http://freakshare.com/files/j08810ee/TeenBanana.Big.Booty.Shake.Downcd1.avi.html
Código:
http://freakshare.com/files/nnqv2pml/TeenBanana.Big.Booty.Shake.Downcd2.avi.html
Código:
http://www.netload.in/dateiw8j2jyZMpC/TeenBanana.Big.Booty.Shake.Downcd1.avi.htm
Código:
http://www.netload.in/dateiFzNzWtdPvo/TeenBanana.Big.Booty.Shake.Downcd2.avi.htm
Código:
http://ul.to/otiad9ra/TeenBanana.Big.Booty.Shake.Downcd1.avi
Código:
http://ul.to/9joqjspw/TeenBanana.Big.Booty.Shake.Downcd2.avi
Código:
http://depositfiles.com/files/2dqr6we0l
Código:
http://depositfiles.com/files/tiwc3yqih
Descargar Aqui