Resultados 1 al 14 de 14

Siete Almas 2008 [Dvdrip.Rmvb. Español Latino]


Descargar Siete Almas 2008 [Dvdrip.Rmvb. Español Latino] Gratis 1 link Full Siete Almas 2008 [Dvdrip.Rmvb. Español Latino] por Mediafire con Crack, Serial, KeyGen Full Torrent

  1. Avatar de ralf475
    ralf475 está desconectado *Novato Avanzado*
    Fecha de ingreso
    23 oct, 09
    Mensajes
    42

    Siete Almas 2008 [Dvdrip.Rmvb. Español Latino]




    Siete almas

    TITULO ORIGINAL Seven Pounds
    AÑO 2008
    PAÍS [Estados Unidos]
    DIRECTOR Gabriele Muccino
    GUIÓN Grant Nieporte
    REPARTO Will Smith, Rosario Dawson, Woody Harrelson, Barry Pepper, Elpidia Carrillo, Connor Cruise, Michael Ealy, Robinne Lee, Joe Nunez
    PRODUCTORA Columbia Pictures / Relativity Media / Overbrook Entertainment Escape Artists
    GÉNERO Drama romántico


    SINOPSIS: Ben Thomas (Will Smith) es un inspector de Hacienda que comienza a contactar con determinadas personas con la aparente intención de ayudarles, a todos de diferentes maneras, sin que sepamos bien ni sus razones ni sus objetivos. Aparentemente Ben tiene un plan, pero cuando conoce a una de esas personas, la atractiva Emily (Rosario Dawson), comienza a sentir algo por ella, complicándose sus misteriosos planes.

    INFO

    Video #1
    ID : 1
    Format : RealVideo 4
    Codec ID : RV40
    Codec ID/Info : Based on AVC (H.264), Real Player 9
    Duration : 2h 3mn
    Bit rate : 376 Kbps
    Width : 720 pixels
    Height : 304 pixels
    Display aspect ratio : 2.35:1
    Frame rate : 30.000 fps
    Resolution : 12 bits
    Bits/(Pixel*Frame) : 0.057
    Stream size : 331 MiB (84%)

    Audio #0
    ID : 0
    Format : Cooker
    Codec ID : cook
    Codec ID/Info : Based on G.722.1, Real Player 6
    Duration : 2h 3mn
    Bit rate : 64.1 Kbps
    Channel(s) : 2 channels
    Sampling rate : 44.1 KHz
    Resolution : 16 bits
    Stream size : 56.4 MiB (14%)

    Formato : RealMedia - RMVB
    Tamaño : 395 MiB
    Duration : 2h 3mn
    Overall bit rate : 440 Kbps
    Calidad : Dvdrip
    Idioma : Español Latino
    Fuente : Dvdrip en xvid de Zen - Sama (Muchas gracias)













    Links Freakshare
    Contenido Oculto Este post contiene información oculta, debes contestar el post o hacer click en el botón 'Gracias' para ver el contenido.


    Links Depositfiles
    Contenido Oculto Este post contiene información oculta, debes contestar el post o hacer click en el botón 'Gracias' para ver el contenido.




    Contraseña : ralf475

    Archivos Intercambiables





  2. jankar181 está desconectado *User Avanzado*
    Fecha de ingreso
    24 feb, 09
    Mensajes
    159

    Re: Siete Almas 2008 [Dvdrip.Rmvb. Español Latino]

    graciaspor el aporte
    Cita Iniciado por ralf475 Ver mensaje


    Siete almas

    TITULO ORIGINAL Seven Pounds
    AÑO 2008
    PAÍS [Estados Unidos]
    DIRECTOR Gabriele Muccino
    GUIÓN Grant Nieporte
    REPARTO Will Smith, Rosario Dawson, Woody Harrelson, Barry Pepper, Elpidia Carrillo, Connor Cruise, Michael Ealy, Robinne Lee, Joe Nunez
    PRODUCTORA Columbia Pictures / Relativity Media / Overbrook Entertainment Escape Artists
    GÉNERO Drama romántico


    SINOPSIS: Ben Thomas (Will Smith) es un inspector de Hacienda que comienza a contactar con determinadas personas con la aparente intención de ayudarles, a todos de diferentes maneras, sin que sepamos bien ni sus razones ni sus objetivos. Aparentemente Ben tiene un plan, pero cuando conoce a una de esas personas, la atractiva Emily (Rosario Dawson), comienza a sentir algo por ella, complicándose sus misteriosos planes.

    INFO

    Video #1
    ID : 1
    Format : RealVideo 4
    Codec ID : RV40
    Codec ID/Info : Based on AVC (H.264), Real Player 9
    Duration : 2h 3mn
    Bit rate : 376 Kbps
    Width : 720 pixels
    Height : 304 pixels
    Display aspect ratio : 2.35:1
    Frame rate : 30.000 fps
    Resolution : 12 bits
    Bits/(Pixel*Frame) : 0.057
    Stream size : 331 MiB (84%)

    Audio #0
    ID : 0
    Format : Cooker
    Codec ID : cook
    Codec ID/Info : Based on G.722.1, Real Player 6
    Duration : 2h 3mn
    Bit rate : 64.1 Kbps
    Channel(s) : 2 channels
    Sampling rate : 44.1 KHz
    Resolution : 16 bits
    Stream size : 56.4 MiB (14%)

    Formato : RealMedia - RMVB
    Tamaño : 395 MiB
    Duration : 2h 3mn
    Overall bit rate : 440 Kbps
    Calidad : Dvdrip
    Idioma : Español Latino
    Fuente : Dvdrip en xvid de Zen - Sama (Muchas gracias)













    Links Freakshare
    hidden content may not be quoted

    Links Depositfiles
    hidden content may not be quoted



    Contraseña : ralf475

    Archivos Intercambiables



  3. Xcorpion está desconectado *Experto*
    Fecha de ingreso
    19 ago, 08
    Mensajes
    232

    Re: Siete Almas 2008 [Dvdrip.Rmvb. Español Latino]

    Esta es muy buena...gracias man..

  4. tavomak está desconectado *Novato Avanzado*
    Fecha de ingreso
    05 dic, 09
    Mensajes
    57

    Re: Siete Almas 2008 [Dvdrip.Rmvb. Español Latino]

    buen aporte

  5. julio013 está desconectado *Novato Avanzado*
    Fecha de ingreso
    25 dic, 09
    Mensajes
    31

    Re: Siete Almas 2008 [Dvdrip.Rmvb. Español Latino]

    gracias...............

  6. Avatar de pascualon14
    pascualon14 está desconectado *Experto*
    Fecha de ingreso
    07 sep, 08
    Mensajes
    373

    Re: Siete Almas 2008 [Dvdrip.Rmvb. Español Latino]

    goooooood job

  7. alexisbelli está desconectado *User Avanzado*
    Fecha de ingreso
    26 dic, 09
    Mensajes
    104

    Re: Siete Almas 2008 [Dvdrip.Rmvb. Español Latino]

    Gracias!!!!!!!!!!!!

  8. Avatar de Warez
    Warez está desconectado Administradores
    Fecha de ingreso
    18 sep, 07
    Ubicación
    Zona Warez
    Mensajes
    62,322

    Re: Siete Almas 2008 [Dvdrip.Rmvb. Español Latino]

    Gracias por el aporte

  9. Radon86 está desconectado *Novato Avanzado*
    Fecha de ingreso
    24 dic, 09
    Mensajes
    50

    Re: Siete Almas 2008 [Dvdrip.Rmvb. Español Latino]

    maaaaverrrr

  10. sdhsicky está desconectado *User Pro*
    Fecha de ingreso
    25 abr, 09
    Mensajes
    664

    Re: Siete Almas 2008 [Dvdrip.Rmvb. Español Latino]

    ..............................^_^gracias

  11. grexes está desconectado *Novato Avanzado*
    Fecha de ingreso
    21 may, 08
    Mensajes
    60

    Re: Siete Almas 2008 [Dvdrip.Rmvb. Español Latino]

    gracias, muy buen aporte.

  12. boy_tkel está desconectado *User Pro*
    Fecha de ingreso
    29 jun, 09
    Mensajes
    569

    Re: Siete Almas 2008 [Dvdrip.Rmvb. Español Latino]

    se agradece por este aporte

  13. martin9898 está desconectado *User Avanzado*
    Fecha de ingreso
    26 ene, 10
    Mensajes
    192

    Re: Siete Almas 2008 [Dvdrip.Rmvb. Español Latino]

    gracias x el aporteeeeeeeeeeeeee
    Cita Iniciado por ralf475 Ver mensaje


    Siete almas

    TITULO ORIGINAL Seven Pounds
    AÑO 2008
    PAÍS [Estados Unidos]
    DIRECTOR Gabriele Muccino
    GUIÓN Grant Nieporte
    REPARTO Will Smith, Rosario Dawson, Woody Harrelson, Barry Pepper, Elpidia Carrillo, Connor Cruise, Michael Ealy, Robinne Lee, Joe Nunez
    PRODUCTORA Columbia Pictures / Relativity Media / Overbrook Entertainment Escape Artists
    GÉNERO Drama romántico


    SINOPSIS: Ben Thomas (Will Smith) es un inspector de Hacienda que comienza a contactar con determinadas personas con la aparente intención de ayudarles, a todos de diferentes maneras, sin que sepamos bien ni sus razones ni sus objetivos. Aparentemente Ben tiene un plan, pero cuando conoce a una de esas personas, la atractiva Emily (Rosario Dawson), comienza a sentir algo por ella, complicándose sus misteriosos planes.

    INFO

    Video #1
    ID : 1
    Format : RealVideo 4
    Codec ID : RV40
    Codec ID/Info : Based on AVC (H.264), Real Player 9
    Duration : 2h 3mn
    Bit rate : 376 Kbps
    Width : 720 pixels
    Height : 304 pixels
    Display aspect ratio : 2.35:1
    Frame rate : 30.000 fps
    Resolution : 12 bits
    Bits/(Pixel*Frame) : 0.057
    Stream size : 331 MiB (84%)

    Audio #0
    ID : 0
    Format : Cooker
    Codec ID : cook
    Codec ID/Info : Based on G.722.1, Real Player 6
    Duration : 2h 3mn
    Bit rate : 64.1 Kbps
    Channel(s) : 2 channels
    Sampling rate : 44.1 KHz
    Resolution : 16 bits
    Stream size : 56.4 MiB (14%)

    Formato : RealMedia - RMVB
    Tamaño : 395 MiB
    Duration : 2h 3mn
    Overall bit rate : 440 Kbps
    Calidad : Dvdrip
    Idioma : Español Latino
    Fuente : Dvdrip en xvid de Zen - Sama (Muchas gracias)













    Links Freakshare
    hidden content may not be quoted

    Links Depositfiles
    hidden content may not be quoted



    Contraseña : ralf475

    Archivos Intercambiables



  14. digitallymens está desconectado *User Pro*
    Fecha de ingreso
    27 nov, 08
    Mensajes
    607

    Re: Siete Almas 2008 [Dvdrip.Rmvb. Español Latino]

    muy buena pelicula

Temas similares

  1. Siete Almas (Seven Pounds) (2008) [DVDRip][Español Latino][Drama][RS/MU/NL]
    Por ro_dri en el foro Peliculas DVDRip en Español Latino
    Respuestas: 216
    Último mensaje: 07/09/2012, 18:56
  2. Siete almas (Seven Pounds) [2008][DVDRip][V.O.S.E][Drama][MP4-AVC][PSP][MU]
    Por israntxa en el foro Descargar Peliculas PSP
    Respuestas: 62
    Último mensaje: 07/09/2012, 18:49
  3. Siete Almas [2008][Drama]DVDScreener[Español-España][RS]
    Por galadali en el foro Peliculas DVD Screener Gratis
    Respuestas: 9
    Último mensaje: 21/04/2012, 02:55
  4. Siete Almas(2009)[DVDScreener][RMVB][370mb][Español][Drama]
    Por aecio01 en el foro Peliculas DVD Screener Gratis
    Respuestas: 12
    Último mensaje: 24/05/2011, 18:12
  5. Siete almas (2008) [DVDScreener][Español][Drama]
    Por okawa en el foro Peliculas DVD Screener Gratis
    Respuestas: 14
    Último mensaje: 14/05/2011, 11:15