Resultados 1 al 7 de 7

Sin Limites (2011) BDRip 720p | ESP AC3 5.1 | V.O. AC3 5.1


Descargar Sin Limites (2011) BDRip 720p | ESP AC3 5.1 | V.O. AC3 5.1 Gratis 1 link Full Sin Limites (2011) BDRip 720p | ESP AC3 5.1 | V.O. AC3 5.1 por Mediafire con Crack, Serial, KeyGen Full Torrent

  1. Avatar de Nukety
    Nukety está desconectado Uploader
    Fecha de ingreso
    16 jun, 11
    Mensajes
    2,702

    Sin Limites (2011) BDRip 720p | ESP AC3 5.1 | V.O. AC3 5.1


    Sin Limites (2011)


    Sinopsis: Eddie Morra (Bradley Cooper) es un escritor emergente que sufre un bloqueo creativo, pero su vida da un giro cuando un viejo amigo le da a conocer el NZT, un medicamento revolucionario que le permite aprovechar su potencial por completo. Con cada impulso nervioso, Eddie puede recordar absolutamente todo lo que ha leído, visto o escuchado, aprender cualquier idioma en un día, entender ecuaciones complejas y encantar a todo aquel con el que se cruce... siempre y cuando continúe tomando la droga experimental. Con sus nuevas capacidades, Eddie no tardará en conquistar Wall Street, convirtiendo un pequeño capital en millones. Sus hazañas llaman la atención del magnate Carl Van Loon (Robert De Niro), quien le invita a participar en la fusión corporativa más grande de la historia. Pero Eddie también llama la atención de personas desesperadas por hacerse con un alijo de NZT. Con su vida amenazada y las consecuencias brutales de los efectos secundarios de la droga, Eddie tiene que esquivar acosadores misteriosos, un gangster vicioso y una investigación policial intensa, mientras intenta aferrarse a su menguante suministro de NZT el tiempo suficiente para zafarse de sus enemigos.

    Género: Thriller
    Idioma: Castellano
    Duración: 105min.
    Año: 2011
    País: USA
    Director: Neil Burger
    Productora: Rogue / Relativity Media


    Solo los usuarios registrados pueden ver los links de descarga. ¡Registrate ahora, ES GRATIS! Solo los usuarios registrados pueden ver los links de descarga. ¡Registrate ahora, ES GRATIS! Solo los usuarios registrados pueden ver los links de descarga. ¡Registrate ahora, ES GRATIS!


    Reparto:


    [YOUTUBE]McS84YVXQHc[/YOUTUBE]

    Rip: BDRip
    Tamaño: 4.06GB
    Formato: 720p
    Contenedor: MKV
    Audio: Castellano AC3 5.1 | Inglés AC3 5.1
    Ripper: Nini_Dani

    Código:
    Format                                   : Matroska
    Format version                           : Version 2
    File size                                : 4.06 GiB
    Duration                                 : 1h 44mn
    Overall bit rate                         : 5 549 Kbps
    Encoded date                             : UTC 2011-08-04 01:51:30
    Writing application                      : mkvmerge v2.9.8 ('C'est le bon') built on Aug 13 2009 12:49:06
    Writing library                          : libebml v0.7.7 + libmatroska v0.8.1
    
    Video
    ID                                       : 1
    Format                                   : AVC
    Format/Info                              : Advanced Video Codec
    Format profile                           : High@L4.1
    Format settings, CABAC                   : Yes
    Format settings, ReFrames                : 8 frames
    Codec ID                                 : V_MPEG4/ISO/AVC
    Duration                                 : 1h 44mn
    Bit rate                                 : 4 461 Kbps
    Width                                    : 1 280 pixels
    Height                                   : 536 pixels
    Display aspect ratio                     : 2.40:1
    Frame rate                               : 23.976 fps
    Color space                              : YUV
    Chroma subsampling                       : 4:2:0
    Bit depth                                : 8 bits
    Scan type                                : Progressive
    Bits/(Pixel*Frame)                       : 0.271
    Stream size                              : 3.18 GiB (78%)
    Title                                    : **montado por Niny**
    Writing library                          : x264 core 114 r1913 5fd3dce
    Encoding settings                        : cabac=1 / ref=8 / deblock=1:-1:-1 / analyse=0x3:0x133 / me=umh / subme=7 / psy=1 / psy_rd=1.00:0.10 / mixed_ref=1 / me_range=16 / chroma_me=1 / trellis=2 / 8x8dct=1 / cqm=0 / deadzone=21,11 / fast_pskip=0 / chroma_qp_offset=-3 / threads=12 / sliced_threads=0 / nr=0 / decimate=1 / interlaced=0 / constrained_intra=0 / bframes=3 / b_pyramid=2 / b_adapt=2 / b_bias=0 / direct=3 / weightb=1 / open_gop=0 / weightp=2 / keyint=250 / keyint_min=23 / scenecut=40 / intra_refresh=0 / rc_lookahead=50 / rc=2pass / mbtree=1 / bitrate=4461 / ratetol=1.0 / qcomp=0.60 / qpmin=0 / qpmax=69 / qpstep=4 / cplxblur=20.0 / qblur=0.5 / ip_ratio=1.40 / aq=1:1.00
    Language                                 : Spanish
    
    Audio #1
    ID                                       : 2
    Format                                   : AC-3
    Format/Info                              : Audio Coding 3
    Mode extension                           : CM (complete main)
    Codec ID                                 : A_AC3
    Duration                                 : 1h 44mn
    Bit rate mode                            : Constant
    Bit rate                                 : 448 Kbps
    Channel(s)                               : 6 channels
    Channel positions                        : Front: L C R, Side: L R, LFE
    Sampling rate                            : 48.0 KHz
    Bit depth                                : 16 bits
    Compression mode                         : Lossy
    Delay relative to video                  : 14ms
    Stream size                              : 336 MiB (8%)
    Language                                 : Spanish
    
    Audio #2
    ID                                       : 3
    Format                                   : AC-3
    Format/Info                              : Audio Coding 3
    Mode extension                           : CM (complete main)
    Codec ID                                 : A_AC3
    Duration                                 : 1h 44mn
    Bit rate mode                            : Constant
    Bit rate                                 : 640 Kbps
    Channel(s)                               : 6 channels
    Channel positions                        : Front: L C R, Side: L R, LFE
    Sampling rate                            : 48.0 KHz
    Bit depth                                : 16 bits
    Compression mode                         : Lossy
    Stream size                              : 479 MiB (12%)
    Language                                 : English
    
    Text
    ID                                       : 4
    Format                                   : UTF-8
    Codec ID                                 : S_TEXT/UTF8
    Codec ID/Info                            : UTF-8 Plain Text
    Language                                 : Spanish
    Links de Descarga:

    Código:
    		
    		
    Contenido Oculto Este post contiene información oculta, debes contestar el post o hacer click en el botón 'Gracias' para ver el contenido.


    Versión de la Película en 480p AQUÍ

    Versión de la Película en Alta Definición 1080p AQUÍ
    Todos mis aportes los subiré a Uploaded, si necesitas una cuenta premium en Up.to anímate y hazlo a través de mi link de referido Solo los usuarios registrados pueden ver los links de descarga. ¡Registrate ahora, ES GRATIS!
    La contraseña de los aportes es "Nukety"



  2. alfspamalot está desconectado *Novato reciente*
    Fecha de ingreso
    19 mar, 11
    Mensajes
    5

    Re: Sin Limites (2011) BDRip 720p | ESP AC3 5.1 | V.O. AC3 5.1

    Gracias!!! Magnífica peli!!!

  3. Avatar de KANALLA72
    KANALLA72 está desconectado *User Pro*
    Fecha de ingreso
    17 ene, 11
    Mensajes
    455

    Re: Sin Limites (2011) BDRip 720p | ESP AC3 5.1 | V.O. AC3 5.1

    Gracias!!!!!!!!!!!!!!!!!!!!!!!!!!!!!!!!!

  4. Muradas está desconectado *Novato reciente*
    Fecha de ingreso
    15 sep, 08
    Mensajes
    17

    Re: Sin Limites (2011) BDRip 720p | ESP AC3 5.1 | V.O. AC3 5.1

    Vamos a probarla.<<thk

  5. pecio está desconectado *User Pro*
    Fecha de ingreso
    23 jul, 09
    Mensajes
    469

    Re: Sin Limites (2011) BDRip 720p | ESP AC3 5.1 | V.O. AC3 5.1

    muchas gracias

  6. beanta está desconectado *Novato Avanzado*
    Fecha de ingreso
    13 dic, 11
    Mensajes
    51

    Re: Sin Limites (2011) BDRip 720p | ESP AC3 5.1 | V.O. AC3 5.1

    muchas gracias

  7. villeros está desconectado *Master*
    Fecha de ingreso
    27 nov, 08
    Mensajes
    764

    Re: Sin Limites (2011) BDRip 720p | ESP AC3 5.1 | V.O. AC3 5.1

    Gracias....!

Temas similares

  1. Sin Limites [BDRip 720p][Dual Latino/Inglés][Thriller][2011]
    Por djrufus en el foro Peliculas en HD-DVD, BluRay, HDTV Gratis
    Respuestas: 18
    Último mensaje: 15/08/2012, 22:14
  2. Sín Límites (2011) [BDRip 720p] [Castellano] [Thriller]
    Por prdidou en el foro Peliculas en HD-DVD, BluRay, HDTV Gratis
    Respuestas: 16
    Último mensaje: 30/07/2012, 08:20
  3. Sin límites (2011)[BDrip m-720p x264 mkv][Trial Ac3 (Esp-Eng-Cat)(sub)][Thriller.Drog
    Por guerrero36 en el foro Peliculas en HD-DVD, BluRay, HDTV Gratis
    Respuestas: 10
    Último mensaje: 12/04/2012, 21:56
  4. Sín Límites (2011) [BDRip 720p] [Castellano LINE 5.1] [Thriller/Drogas]
    Por supremo12345 en el foro Peliculas en HD-DVD, BluRay, HDTV Gratis
    Respuestas: 1
    Último mensaje: 20/06/2011, 16:15
  5. Sín Límites (2011) [BDRip 720p] [Castellano LINE 5.1] [Thriller/Drogas]
    Por lalopayan75 en el foro Peliculas en HD-DVD, BluRay, HDTV Gratis
    Respuestas: 4
    Último mensaje: 03/06/2011, 09:52

Etiquetas para este tema