Resultados 1 al 2 de 2

rom (2011)(BDrip 720p)(es-AC3/en-AC3)(Comedia


Descargar rom (2011)(BDrip 720p)(es-AC3/en-AC3)(Comedia Gratis 1 link Full rom (2011)(BDrip 720p)(es-AC3/en-AC3)(Comedia por Mediafire con Crack, Serial, KeyGen Full Torrent

  1. araon12 está desconectado *User Pro*
    Fecha de ingreso
    20 jun, 10
    Mensajes
    596

    rom (2011)(BDrip 720p)(es-AC3/en-AC3)(Comedia





    Prom (2011)(BDrip 720p)(es-AC3/en-AC3)(Comedia)







    Comedia dramática | Solo los usuarios registrados pueden ver los links de descarga. ¡Registrate ahora, ES GRATIS! | Próximamente
    Título: Prom
    Título original: Prom
    País: USA
    Estreno en USA: 29/04/2011
    Estreno en España: 30/09/2011
    Productora: Walt Disney Pictures
    Director: Joe Nussbaum
    Guión: Katie Wech
    Reparto: Aimee Teegarden, Thomas McDonell, Danielle Campbell, Yin Chang, Kylie Bunbury, Nicholas Braun, Jared Kusnitz, Jonathan Keltz, De?Vaughn Nixon, Nolan Sotillo, Cameron Monaghan, Joe Adler, Janelle Ortiz, Raini Rodríguez



    En ?Prom?, todas las parejas tienen una historia y no hay dos exactamente iguales. El baile de graduación se acerca y las historias entrecruzadas del instituto están a punto de alcanzar su punto culminante. La película nos cuenta el complicado paso del instituto a la vida adulta. Algunas relaciones acabarán y otras empezarán... Nova Prescott (Aimee Teegarden) tiene que hacer una difícil elección ya que se siente atraída por el chico (Thomas McDonell) que se cruza en su Solo los usuarios registrados pueden ver los links de descarga. ¡Registrate ahora, ES GRATIS! baile de graduación. Sus compañeros Mei (Yin Chang) y Tyler (De?Vaughn Nixon), mayores que ella, esconden secretos, mientras que otros tendrán que hacer frente a la inseguridad y a la expectación que rodea a uno de los acontecimientos más cruciales del instituto. En un instituto hay cientos de noches, pero sólo hay un baile de graduación, el que cuenta: ?Prom?."Fin de curso (Prom)" presenta un reparto desconocido de promesas emergentes y va acompañada de una fantástica banda sonora. Llega a los cines españoles el 18 de agosto de 2011.El baile de graduación se acerca y las historias entrecruzadas del instituto están a punto de alcanzar su punto culminante. ?Fin de curso (Prom)? nos cuenta el complicado paso del instituto a la vida adulta. Algunas relaciones acabarán y otras empezarán...[/COLOR]


    General
    UniqueID : 251279217656726141832689758311720268626 (0xBD0A9DF1A9A04C2285B79F82A815B352)
    Complete name : files/Prom-BDrip-720.mkv
    Format : Matroska
    File size : 3.87 GiB
    Duration : 1h 43mn
    Overall bit rate : 5 333 Kbps
    Movie name : nurio-taino
    Encoded date : UTC 2011-09-24 14:44:28
    Writing application : mkvmerge v4.9.1 ('Ich will') built on Jul 11 2011 23:53:15
    Writing library : libebml v1.2.1 + libmatroska v1.1.1

    Video
    ID : 1
    Format : MPEG-4 Visual
    Format profile : Advanced Simple@L5
    Format settings, BVOP : Yes
    Format settings, QPel : No
    Format settings, GMC : No warppoints
    Format settings, Matrix : Default (MPEG)
    Codec ID : XVID
    Codec ID/Hint : XviD
    Duration : 1h 43mn
    Bit rate : 4 395 Kbps
    Width : 1 280 pixels
    Height : 720 pixels
    Display aspect ratio : 16:9
    Frame rate : 23.976 fps
    Color space : YUV
    Chroma subsampling : 4:2:0
    Bit depth : 8 bits
    Scan type : Progressive
    Compression mode : Lossy
    Bits/(Pixel*Frame) : 0.199
    Stream size : 3.19 GiB (82%)
    Writing library : XviD 1.2.1 (UTC 2008-12-04)

    Audio #1
    ID : 2
    Format : AC-3
    Format/Info : Audio Coding 3
    Mode extension : CM (complete main)
    Muxing mode : Header stripping
    Codec ID : A_AC3
    Duration : 1h 43mn
    Bit rate mode : Constant
    Bit rate : 384 Kbps
    Channel(s) : 6 channels
    Channel positions : Front: L C R, Side: L R, LFE
    Sampling rate : 48.0 KHz
    Bit depth : 16 bits
    Compression mode : Lossy
    Stream size : 285 MiB (7%)
    Language : Spanish

    Audio #2
    ID : 3
    Format : AC-3
    Format/Info : Audio Coding 3
    Mode extension : CM (complete main)
    Muxing mode : Header stripping
    Codec ID : A_AC3
    Duration : 1h 43mn
    Bit rate mode : Constant
    Bit rate : 448 Kbps
    Channel(s) : 6 channels
    Channel positions : Front: L C R, Side: L R, LFE
    Sampling rate : 48.0 KHz
    Bit depth : 16 bits
    Compression mode : Lossy
    Stream size : 333 MiB (8%)
    Language : English

    Text #1
    ID : 4
    Format : UTF-8
    Codec ID : S_TEXT/UTF8
    Codec ID/Info : UTF-8 Plain Text
    Language : Spanish

    Text #2
    ID : 5
    Format : UTF-8
    Codec ID : S_TEXT/UTF8
    Codec ID/Info : UTF-8 Plain Text
    Language : English






    Servidores Intercambiables








    Contenido Oculto Este post contiene información oculta, debes contestar el post o hacer click en el botón 'Gracias' para ver el contenido.




    Contenido Oculto Este post contiene información oculta, debes contestar el post o hacer click en el botón 'Gracias' para ver el contenido.




    Contenido Oculto Este post contiene información oculta, debes contestar el post o hacer click en el botón 'Gracias' para ver el contenido.







  2. Avatar de jagj85
    jagj85 está desconectado Moderadores
    Fecha de ingreso
    07 oct, 10
    Ubicación
    Zona Warez-Venezuela
    Mensajes
    15,558

    Re: rom (2011)(BDrip 720p)(es-AC3/en-AC3)(Comedia

    Gracias por la pelicula.

Temas similares

  1. MicMacs [2011] [BDrip 720p] [Esp] [Comedia]
    Por prdidou en el foro Peliculas en HD-DVD, BluRay, HDTV Gratis
    Respuestas: 6
    Último mensaje: 27/08/2012, 05:16
  2. Fin De Curso [BDRip 720p][Castellano][Comedia][2011]
    Por goreleon en el foro Peliculas en HD-DVD, BluRay, HDTV Gratis
    Respuestas: 1
    Último mensaje: 15/05/2012, 21:38
  3. Hop [BDrip 720p Mkv]Ac3 (es-Es);DTS(en-Us)] [2011][Comedia/Animacion]
    Por lalopayan75 en el foro Peliculas en HD-DVD, BluRay, HDTV Gratis
    Respuestas: 0
    Último mensaje: 19/08/2011, 03:09
  4. Hop [BDrip 720p mkv][Castellano][2011]MIC HQ (es-Es);DTS(en-Us)][Comedia/Animacion]
    Por lalopayan75 en el foro Peliculas en HD-DVD, BluRay, HDTV Gratis
    Respuestas: 0
    Último mensaje: 28/07/2011, 19:51
  5. Respuestas: 0
    Último mensaje: 14/03/2011, 12:20