Resultados 1 al 25 de 25
Like Tree5Likes
  • 5 Post By dysrec

Un Domingo Cualquiera (1999) [BDRip][Esp-Ing]


Descargar Un Domingo Cualquiera (1999) [BDRip][Esp-Ing] Gratis 1 link Full Un Domingo Cualquiera (1999) [BDRip][Esp-Ing] por Mediafire con Crack, Serial, KeyGen Full Torrent

  1. dysrec está desconectado *User Avanzado*
    Fecha de ingreso
    01 jul, 09
    Mensajes
    115

    Un Domingo Cualquiera (1999) [BDRip][Esp-Ing]






    Titulo: Any Given Sunday (1999)
    Genero: Drama-Deporte
    Duración: 157 min
    Idioma: Español-Ingles
    Tamaño: 5.25 GB
    Formato: MKV
    Calidad: Excelente

    Código:
    Info
    General
    Unique ID : 190901732960758251054070581148281942627 (0x8F9E561DF26A860A985019F67B273263)
    Format : Matroska
    File size : 5.25 GiB
    Duration : 2h 37mn
    Overall bit rate : 4 782 Kbps
    Movie name : Un Domingo cualquiera SinNmar
    Encoded date : UTC 2011-03-23 00:23:01
    Writing application : mkvmerge v4.5.0 ('Speed of Light') built on Feb 1 2011 02:10:32
    Writing library : libebml v1.2.0 + libmatroska v1.1.0
    
    Video
    ID : 1
    Format : AVC
    Format/Info : Advanced Video Codec
    Format profile : High@L4.1
    Format settings, CABAC : Yes
    Format settings, ReFrames : 5 frames
    Codec ID : V_MPEG4/ISO/AVC
    Duration : 2h 37mn
    Bit rate : 3 500 Kbps
    Width : 1 910 pixels
    Height : 800 pixels
    Display aspect ratio : 2.35:1
    Frame rate : 23.976 fps
    Color space : YUV
    Chroma subsampling : 4:2:0
    Bit depth : 8 bits
    Scan type : Progressive
    Bits/(Pixel*Frame) : 0.096
    Stream size : 3.74 GiB (71%)
    Writing library : x264 core 114 r1913 5fd3dce
    Encoding settings : cabac=1 / ref=5 / deblock=1:0:0 / analyse=0x3:0x113 / me=umh / subme=8 / psy=1 / psy_rd=1.00:0.00 / mixed_ref=1 / me_range=24 / chroma_me=1 / trellis=1 / 8x8dct=1 / cqm=0 / deadzone=21,11 / fast_pskip=1 / chroma_qp_offset=-2 / threads=6 / sliced_threads=0 / nr=0 / decimate=1 / interlaced=0 / constrained_intra=0 / bframes=3 / b_pyramid=2 / b_adapt=2 / b_bias=0 / direct=3 / weightb=1 / open_gop=0 / weightp=2 / keyint=250 / keyint_min=23 / scenecut=40 / intra_refresh=0 / rc_lookahead=50 / rc=2pass / mbtree=1 / bitrate=3500 / ratetol=1.0 / qcomp=0.60 / qpmin=0 / qpmax=69 / qpstep=4 / cplxblur=20.0 / qblur=0.5 / ip_ratio=1.40 / aq=1:1.00
    Language : English
    
    Audio #1
    ID : 2
    Format : AC-3
    Format/Info : Audio Coding 3
    Mode extension : CM (complete main)
    Codec ID : A_AC3
    Duration : 2h 37mn
    Bit rate mode : Constant
    Bit rate : 640 Kbps
    Channel(s) : 6 channels
    Channel positions : Front: L C R, Side: L R, LFE
    Sampling rate : 48.0 KHz
    Bit depth : 16 bits
    Compression mode : Lossy
    Stream size : 720 MiB (13%)
    Title : AC3 Esp
    Language : Spanish
    
    Audio #2
    ID : 3
    Format : AC-3
    Format/Info : Audio Coding 3
    Mode extension : CM (complete main)
    Codec ID : A_AC3
    Duration : 2h 37mn
    Bit rate mode : Constant
    Bit rate : 640 Kbps
    Channel(s) : 6 channels
    Channel positions : Front: L C R, Side: L R, LFE
    Sampling rate : 48.0 KHz
    Bit depth : 16 bits
    Compression mode : Lossy
    Stream size : 720 MiB (13%)
    Title : AC3 Ing
    Language : English
    
    Text #1
    ID : 4
    Format : UTF-8
    Codec ID : S_TEXT/UTF8
    Codec ID/Info : UTF-8 Plain Text
    Title : Esp
    Language : Spanish
    
    Text #2
    ID : 5
    Format : UTF-8
    Codec ID : S_TEXT/UTF8
    Codec ID/Info : UTF-8 Plain Text
    Title : Ing
    Language : English
    Cuatro años antes, los Tiburones de Miami, dirigidos por el entrenador D'Amato (Al Pacino), habían ganado dos campeonatos consecutivos. Ahora el equipo sólo consigue derrotas consecutivas. Además, el público escasea y los antiguos ídolos están en el ocaso de sus carreras, particularmente Jack "Cap" Rooney (Dennis Quaid) que a sus 39 años se aferra desesperadamente a lo poco que le queda como jugador profesional. Pero es que, además, fuera del campo, D'Amato tiene problemas con su mujer y con sus hijos. Y dentro, son frecuentes los conflictos con Christina Pagniacci (Cameron Diaz), la joven presidente y co-propietaria de los Tiburones.









    Contenido Oculto Este post contiene información oculta, debes contestar el post o hacer click en el botón 'Gracias' para ver el contenido.




  2. algayo está desconectado *Novato reciente*
    Fecha de ingreso
    26 abr, 11
    Mensajes
    3

    Re: Un Domingo Cualquiera (1999) [BDRip][Esp-Ing]

    Gracias por tu aporte.

    Un saludo

  3. zoskar está desconectado *Novato reciente*
    Fecha de ingreso
    17 jul, 09
    Mensajes
    10

    Re: Un Domingo Cualquiera (1999) [BDRip][Esp-Ing]

    Espero que los links funcionen y no sean ya de megaupload xD

  4. lecasti está desconectado *Novato reciente*
    Fecha de ingreso
    13 mar, 12
    Mensajes
    1

    Re: Un Domingo Cualquiera (1999) [BDRip][Esp-Ing]

    dvdsfadsvfdgadf dfvsdfvsfd

  5. roloc está desconectado *Novato reciente*
    Fecha de ingreso
    30 ago, 09
    Mensajes
    7

    Re: Un Domingo Cualquiera (1999) [BDRip][Esp-Ing]

    Gracias por el aporte.

  6. Maivr está desconectado *Novato Avanzado*
    Fecha de ingreso
    13 jun, 08
    Mensajes
    37

    Re: Un Domingo Cualquiera (1999) [BDRip][Esp-Ing]


  7. Ganessis está desconectado *Novato reciente*
    Fecha de ingreso
    27 abr, 10
    Mensajes
    18

    Re: Un Domingo Cualquiera (1999) [BDRip][Esp-Ing]

    Gracias por el aporte

  8. nidbjorg está desconectado *Novato reciente*
    Fecha de ingreso
    27 oct, 09
    Mensajes
    21

    Re: Un Domingo Cualquiera (1999) [BDRip][Esp-Ing]

    Gracias por tu aporte

  9. guille009 está desconectado *Novato Avanzado*
    Fecha de ingreso
    14 ene, 09
    Mensajes
    76

    Re: Un Domingo Cualquiera (1999) [BDRip][Esp-Ing]

    excelente aporte
    gracias

  10. ing_olvera está desconectado *User Pro*
    Fecha de ingreso
    27 sep, 10
    Mensajes
    531

    Re: Un Domingo Cualquiera (1999) [BDRip][Esp-Ing]

    Gracias por le aporte
    Cita Iniciado por dysrec Ver mensaje




    Titulo: Any Given Sunday (1999)
    Genero: Drama-Deporte
    Duración: 157 min
    Idioma: Español-Ingles
    Tamaño: 5.25 GB
    Formato: MKV
    Calidad: Excelente

    Código:
    Info
    General
    Unique ID : 190901732960758251054070581148281942627 (0x8F9E561DF26A860A985019F67B273263)
    Format : Matroska
    File size : 5.25 GiB
    Duration : 2h 37mn
    Overall bit rate : 4 782 Kbps
    Movie name : Un Domingo cualquiera SinNmar
    Encoded date : UTC 2011-03-23 00:23:01
    Writing application : mkvmerge v4.5.0 ('Speed of Light') built on Feb 1 2011 02:10:32
    Writing library : libebml v1.2.0 + libmatroska v1.1.0
    
    Video
    ID : 1
    Format : AVC
    Format/Info : Advanced Video Codec
    Format profile : High@L4.1
    Format settings, CABAC : Yes
    Format settings, ReFrames : 5 frames
    Codec ID : V_MPEG4/ISO/AVC
    Duration : 2h 37mn
    Bit rate : 3 500 Kbps
    Width : 1 910 pixels
    Height : 800 pixels
    Display aspect ratio : 2.35:1
    Frame rate : 23.976 fps
    Color space : YUV
    Chroma subsampling : 4:2:0
    Bit depth : 8 bits
    Scan type : Progressive
    Bits/(Pixel*Frame) : 0.096
    Stream size : 3.74 GiB (71%)
    Writing library : x264 core 114 r1913 5fd3dce
    Encoding settings : cabac=1 / ref=5 / deblock=1:0:0 / analyse=0x3:0x113 / me=umh / subme=8 / psy=1 / psy_rd=1.00:0.00 / mixed_ref=1 / me_range=24 / chroma_me=1 / trellis=1 / 8x8dct=1 / cqm=0 / deadzone=21,11 / fast_pskip=1 / chroma_qp_offset=-2 / threads=6 / sliced_threads=0 / nr=0 / decimate=1 / interlaced=0 / constrained_intra=0 / bframes=3 / b_pyramid=2 / b_adapt=2 / b_bias=0 / direct=3 / weightb=1 / open_gop=0 / weightp=2 / keyint=250 / keyint_min=23 / scenecut=40 / intra_refresh=0 / rc_lookahead=50 / rc=2pass / mbtree=1 / bitrate=3500 / ratetol=1.0 / qcomp=0.60 / qpmin=0 / qpmax=69 / qpstep=4 / cplxblur=20.0 / qblur=0.5 / ip_ratio=1.40 / aq=1:1.00
    Language : English
    
    Audio #1
    ID : 2
    Format : AC-3
    Format/Info : Audio Coding 3
    Mode extension : CM (complete main)
    Codec ID : A_AC3
    Duration : 2h 37mn
    Bit rate mode : Constant
    Bit rate : 640 Kbps
    Channel(s) : 6 channels
    Channel positions : Front: L C R, Side: L R, LFE
    Sampling rate : 48.0 KHz
    Bit depth : 16 bits
    Compression mode : Lossy
    Stream size : 720 MiB (13%)
    Title : AC3 Esp
    Language : Spanish
    
    Audio #2
    ID : 3
    Format : AC-3
    Format/Info : Audio Coding 3
    Mode extension : CM (complete main)
    Codec ID : A_AC3
    Duration : 2h 37mn
    Bit rate mode : Constant
    Bit rate : 640 Kbps
    Channel(s) : 6 channels
    Channel positions : Front: L C R, Side: L R, LFE
    Sampling rate : 48.0 KHz
    Bit depth : 16 bits
    Compression mode : Lossy
    Stream size : 720 MiB (13%)
    Title : AC3 Ing
    Language : English
    
    Text #1
    ID : 4
    Format : UTF-8
    Codec ID : S_TEXT/UTF8
    Codec ID/Info : UTF-8 Plain Text
    Title : Esp
    Language : Spanish
    
    Text #2
    ID : 5
    Format : UTF-8
    Codec ID : S_TEXT/UTF8
    Codec ID/Info : UTF-8 Plain Text
    Title : Ing
    Language : English
    Cuatro años antes, los Tiburones de Miami, dirigidos por el entrenador D'Amato (Al Pacino), habían ganado dos campeonatos consecutivos. Ahora el equipo sólo consigue derrotas consecutivas. Además, el público escasea y los antiguos ídolos están en el ocaso de sus carreras, particularmente Jack "Cap" Rooney (Dennis Quaid) que a sus 39 años se aferra desesperadamente a lo poco que le queda como jugador profesional. Pero es que, además, fuera del campo, D'Amato tiene problemas con su mujer y con sus hijos. Y dentro, son frecuentes los conflictos con Christina Pagniacci (Cameron Diaz), la joven presidente y co-propietaria de los Tiburones.









    hidden content may not be quoted

  11. chrissalom está desconectado *Novato reciente*
    Fecha de ingreso
    23 jul, 12
    Mensajes
    3

    Re: Un Domingo Cualquiera (1999) [BDRip][Esp-Ing]

    Gracias muy buen aporte. gran pelicula.

  12. chrissalom está desconectado *Novato reciente*
    Fecha de ingreso
    23 jul, 12
    Mensajes
    3

    Re: Un Domingo Cualquiera (1999) [BDRip][Esp-Ing]

    buen aporte. gracias.

  13. ruso1975 está desconectado *Novato reciente*
    Fecha de ingreso
    21 ago, 12
    Mensajes
    3

    Re: Un Domingo Cualquiera (1999) [BDRip][Esp-Ing]

    gracias totales

  14. sergio8999 está desconectado *Novato reciente*
    Fecha de ingreso
    23 may, 12
    Mensajes
    8

    Re: Un Domingo Cualquiera (1999) [BDRip][Esp-Ing]

    graciassss

  15. jfromeroh está desconectado *Novato reciente*
    Fecha de ingreso
    11 ene, 10
    Mensajes
    10

    Re: Un Domingo Cualquiera (1999) [BDRip][Esp-Ing]

    gracias gracias

  16. El_luigi está desconectado *Novato reciente*
    Fecha de ingreso
    01 abr, 12
    Mensajes
    4

    Re: Un Domingo Cualquiera (1999) [BDRip][Esp-Ing]

    Gracias por tu aporte.

    Un saludo

  17. ramonn68 está desconectado *Novato Avanzado*
    Fecha de ingreso
    05 feb, 12
    Mensajes
    80

    Re: Un Domingo Cualquiera (1999) [BDRip][Esp-Ing]

    okkkkkkkkkkkkkkkkkkkkkkkkkkkkk kkkkkkkkkkkkkkkkkkkkkkkkkkkkkkk

  18. donkikes está desconectado *Novato Avanzado*
    Fecha de ingreso
    26 abr, 09
    Mensajes
    52

    Re: Un Domingo Cualquiera (1999) [BDRip][Esp-Ing]

    gracias : )

  19. yhedai está desconectado *Novato Avanzado*
    Fecha de ingreso
    05 ene, 10
    Mensajes
    96

    Re: Un Domingo Cualquiera (1999) [BDRip][Esp-Ing]

    aaaaaaaaaaaaaaaaaaaaaaaaaaaaaaaaaaaaaaaaaaaaaaaaaa aaaaaaaaaaaaaaaaaaaa

  20. carnada10 está desconectado *Novato reciente*
    Fecha de ingreso
    05 jun, 12
    Mensajes
    8

    Re: Un Domingo Cualquiera (1999) [BDRip][Esp-Ing]

    gracias muy buena pelicula

  21. RAYSI500 está desconectado *Novato reciente*
    Fecha de ingreso
    31 jul, 11
    Mensajes
    2

    Re: Un Domingo Cualquiera (1999) [BDRip][Esp-Ing]

    Gracias por tu aporte.

    Un saludo
    Cita Iniciado por dysrec Ver mensaje




    Titulo: Any Given Sunday (1999)
    Genero: Drama-Deporte
    Duración: 157 min
    Idioma: Español-Ingles
    Tamaño: 5.25 GB
    Formato: MKV
    Calidad: Excelente

    Código:
    Info
    General
    Unique ID : 190901732960758251054070581148281942627 (0x8F9E561DF26A860A985019F67B273263)
    Format : Matroska
    File size : 5.25 GiB
    Duration : 2h 37mn
    Overall bit rate : 4 782 Kbps
    Movie name : Un Domingo cualquiera SinNmar
    Encoded date : UTC 2011-03-23 00:23:01
    Writing application : mkvmerge v4.5.0 ('Speed of Light') built on Feb 1 2011 02:10:32
    Writing library : libebml v1.2.0 + libmatroska v1.1.0
    
    Video
    ID : 1
    Format : AVC
    Format/Info : Advanced Video Codec
    Format profile : High@L4.1
    Format settings, CABAC : Yes
    Format settings, ReFrames : 5 frames
    Codec ID : V_MPEG4/ISO/AVC
    Duration : 2h 37mn
    Bit rate : 3 500 Kbps
    Width : 1 910 pixels
    Height : 800 pixels
    Display aspect ratio : 2.35:1
    Frame rate : 23.976 fps
    Color space : YUV
    Chroma subsampling : 4:2:0
    Bit depth : 8 bits
    Scan type : Progressive
    Bits/(Pixel*Frame) : 0.096
    Stream size : 3.74 GiB (71%)
    Writing library : x264 core 114 r1913 5fd3dce
    Encoding settings : cabac=1 / ref=5 / deblock=1:0:0 / analyse=0x3:0x113 / me=umh / subme=8 / psy=1 / psy_rd=1.00:0.00 / mixed_ref=1 / me_range=24 / chroma_me=1 / trellis=1 / 8x8dct=1 / cqm=0 / deadzone=21,11 / fast_pskip=1 / chroma_qp_offset=-2 / threads=6 / sliced_threads=0 / nr=0 / decimate=1 / interlaced=0 / constrained_intra=0 / bframes=3 / b_pyramid=2 / b_adapt=2 / b_bias=0 / direct=3 / weightb=1 / open_gop=0 / weightp=2 / keyint=250 / keyint_min=23 / scenecut=40 / intra_refresh=0 / rc_lookahead=50 / rc=2pass / mbtree=1 / bitrate=3500 / ratetol=1.0 / qcomp=0.60 / qpmin=0 / qpmax=69 / qpstep=4 / cplxblur=20.0 / qblur=0.5 / ip_ratio=1.40 / aq=1:1.00
    Language : English
    
    Audio #1
    ID : 2
    Format : AC-3
    Format/Info : Audio Coding 3
    Mode extension : CM (complete main)
    Codec ID : A_AC3
    Duration : 2h 37mn
    Bit rate mode : Constant
    Bit rate : 640 Kbps
    Channel(s) : 6 channels
    Channel positions : Front: L C R, Side: L R, LFE
    Sampling rate : 48.0 KHz
    Bit depth : 16 bits
    Compression mode : Lossy
    Stream size : 720 MiB (13%)
    Title : AC3 Esp
    Language : Spanish
    
    Audio #2
    ID : 3
    Format : AC-3
    Format/Info : Audio Coding 3
    Mode extension : CM (complete main)
    Codec ID : A_AC3
    Duration : 2h 37mn
    Bit rate mode : Constant
    Bit rate : 640 Kbps
    Channel(s) : 6 channels
    Channel positions : Front: L C R, Side: L R, LFE
    Sampling rate : 48.0 KHz
    Bit depth : 16 bits
    Compression mode : Lossy
    Stream size : 720 MiB (13%)
    Title : AC3 Ing
    Language : English
    
    Text #1
    ID : 4
    Format : UTF-8
    Codec ID : S_TEXT/UTF8
    Codec ID/Info : UTF-8 Plain Text
    Title : Esp
    Language : Spanish
    
    Text #2
    ID : 5
    Format : UTF-8
    Codec ID : S_TEXT/UTF8
    Codec ID/Info : UTF-8 Plain Text
    Title : Ing
    Language : English
    Cuatro años antes, los Tiburones de Miami, dirigidos por el entrenador D'Amato (Al Pacino), habían ganado dos campeonatos consecutivos. Ahora el equipo sólo consigue derrotas consecutivas. Además, el público escasea y los antiguos ídolos están en el ocaso de sus carreras, particularmente Jack "Cap" Rooney (Dennis Quaid) que a sus 39 años se aferra desesperadamente a lo poco que le queda como jugador profesional. Pero es que, además, fuera del campo, D'Amato tiene problemas con su mujer y con sus hijos. Y dentro, son frecuentes los conflictos con Christina Pagniacci (Cameron Diaz), la joven presidente y co-propietaria de los Tiburones.









    hidden content may not be quoted

  22. claudiozerpa está desconectado *Novato reciente*
    Fecha de ingreso
    25 nov, 12
    Mensajes
    3

    Re: Un Domingo Cualquiera (1999) [BDRip][Esp-Ing]

    OK? no veo los links

    Cita Iniciado por dysrec Ver mensaje




    Titulo: Any Given Sunday (1999)
    Genero: Drama-Deporte
    Duración: 157 min
    Idioma: Español-Ingles
    Tamaño: 5.25 GB
    Formato: MKV
    Calidad: Excelente

    Código:
    Info
    General
    Unique ID : 190901732960758251054070581148281942627 (0x8F9E561DF26A860A985019F67B273263)
    Format : Matroska
    File size : 5.25 GiB
    Duration : 2h 37mn
    Overall bit rate : 4 782 Kbps
    Movie name : Un Domingo cualquiera SinNmar
    Encoded date : UTC 2011-03-23 00:23:01
    Writing application : mkvmerge v4.5.0 ('Speed of Light') built on Feb 1 2011 02:10:32
    Writing library : libebml v1.2.0 + libmatroska v1.1.0
    
    Video
    ID : 1
    Format : AVC
    Format/Info : Advanced Video Codec
    Format profile : High@L4.1
    Format settings, CABAC : Yes
    Format settings, ReFrames : 5 frames
    Codec ID : V_MPEG4/ISO/AVC
    Duration : 2h 37mn
    Bit rate : 3 500 Kbps
    Width : 1 910 pixels
    Height : 800 pixels
    Display aspect ratio : 2.35:1
    Frame rate : 23.976 fps
    Color space : YUV
    Chroma subsampling : 4:2:0
    Bit depth : 8 bits
    Scan type : Progressive
    Bits/(Pixel*Frame) : 0.096
    Stream size : 3.74 GiB (71%)
    Writing library : x264 core 114 r1913 5fd3dce
    Encoding settings : cabac=1 / ref=5 / deblock=1:0:0 / analyse=0x3:0x113 / me=umh / subme=8 / psy=1 / psy_rd=1.00:0.00 / mixed_ref=1 / me_range=24 / chroma_me=1 / trellis=1 / 8x8dct=1 / cqm=0 / deadzone=21,11 / fast_pskip=1 / chroma_qp_offset=-2 / threads=6 / sliced_threads=0 / nr=0 / decimate=1 / interlaced=0 / constrained_intra=0 / bframes=3 / b_pyramid=2 / b_adapt=2 / b_bias=0 / direct=3 / weightb=1 / open_gop=0 / weightp=2 / keyint=250 / keyint_min=23 / scenecut=40 / intra_refresh=0 / rc_lookahead=50 / rc=2pass / mbtree=1 / bitrate=3500 / ratetol=1.0 / qcomp=0.60 / qpmin=0 / qpmax=69 / qpstep=4 / cplxblur=20.0 / qblur=0.5 / ip_ratio=1.40 / aq=1:1.00
    Language : English
    
    Audio #1
    ID : 2
    Format : AC-3
    Format/Info : Audio Coding 3
    Mode extension : CM (complete main)
    Codec ID : A_AC3
    Duration : 2h 37mn
    Bit rate mode : Constant
    Bit rate : 640 Kbps
    Channel(s) : 6 channels
    Channel positions : Front: L C R, Side: L R, LFE
    Sampling rate : 48.0 KHz
    Bit depth : 16 bits
    Compression mode : Lossy
    Stream size : 720 MiB (13%)
    Title : AC3 Esp
    Language : Spanish
    
    Audio #2
    ID : 3
    Format : AC-3
    Format/Info : Audio Coding 3
    Mode extension : CM (complete main)
    Codec ID : A_AC3
    Duration : 2h 37mn
    Bit rate mode : Constant
    Bit rate : 640 Kbps
    Channel(s) : 6 channels
    Channel positions : Front: L C R, Side: L R, LFE
    Sampling rate : 48.0 KHz
    Bit depth : 16 bits
    Compression mode : Lossy
    Stream size : 720 MiB (13%)
    Title : AC3 Ing
    Language : English
    
    Text #1
    ID : 4
    Format : UTF-8
    Codec ID : S_TEXT/UTF8
    Codec ID/Info : UTF-8 Plain Text
    Title : Esp
    Language : Spanish
    
    Text #2
    ID : 5
    Format : UTF-8
    Codec ID : S_TEXT/UTF8
    Codec ID/Info : UTF-8 Plain Text
    Title : Ing
    Language : English
    Cuatro años antes, los Tiburones de Miami, dirigidos por el entrenador D'Amato (Al Pacino), habían ganado dos campeonatos consecutivos. Ahora el equipo sólo consigue derrotas consecutivas. Además, el público escasea y los antiguos ídolos están en el ocaso de sus carreras, particularmente Jack "Cap" Rooney (Dennis Quaid) que a sus 39 años se aferra desesperadamente a lo poco que le queda como jugador profesional. Pero es que, además, fuera del campo, D'Amato tiene problemas con su mujer y con sus hijos. Y dentro, son frecuentes los conflictos con Christina Pagniacci (Cameron Diaz), la joven presidente y co-propietaria de los Tiburones.









    hidden content may not be quoted

  23. amante_clandestino está desconectado *Novato Avanzado*
    Fecha de ingreso
    05 sep, 09
    Mensajes
    34

    Re: Un Domingo Cualquiera (1999) [BDRip][Esp-Ing]

    Gracias por el aporte

  24. ArielitoARG está desconectado *Novato reciente*
    Fecha de ingreso
    26 jul, 12
    Mensajes
    2

    Re: Un Domingo Cualquiera (1999) [BDRip][Esp-Ing]

    gracias por el aporte

  25. peluchin348 está desconectado *Dios del FORO*
    Fecha de ingreso
    18 may, 09
    Mensajes
    1,127

    Re: Un Domingo Cualquiera (1999) [BDRip][Esp-Ing]

    exelente aporte

Temas similares

  1. Un domingo cualquiera[2000][Dvdrip-español][Drama]
    Por atomo28 en el foro Peliculas DVDRip en Castellano
    Respuestas: 38
    Último mensaje: 23/06/2014, 03:04
  2. Plácido Domingo -The best of domingo
    Por niuserr en el foro Mp3z Musica
    Respuestas: 7
    Último mensaje: 25/11/2012, 00:31
  3. Placido Domingo - 100 Años de Mariachi (1999)
    Por Nasser25 en el foro Mp3z Musica
    Respuestas: 76
    Último mensaje: 25/11/2012, 00:29
  4. Placido Domingo - The Essential Placido Domingo (2004)
    Por illusion247 en el foro Mp3z Musica
    Respuestas: 0
    Último mensaje: 23/06/2011, 08:32