Resultados 1 al 7 de 7
Like Tree1Likes
  • 1 Post By Nukety

El Santuario (2011) BDRip 1080p | ESP AC3 5.1 | V.O. DTS 5.1


Descargar El Santuario (2011) BDRip 1080p | ESP AC3 5.1 | V.O. DTS 5.1 Gratis 1 link Full El Santuario (2011) BDRip 1080p | ESP AC3 5.1 | V.O. DTS 5.1 por Mediafire con Crack, Serial, KeyGen Full Torrent

  1. Avatar de Nukety
    Nukety está desconectado Uploader
    Fecha de ingreso
    16 jun, 11
    Mensajes
    2,702

    El Santuario (2011) BDRip 1080p | ESP AC3 5.1 | V.O. DTS 5.1


    El Santuario (2011)


    Sinopsis: Un grupo de submarinistas, encabezado por un padre y un hijo, realizan una expedición subacuática a la cueva más grande e inaccesible del mundo. A causa de una tormenta tropical, se verán obligados a luchar contra multitud de peligros mientras buscan la ruta que les permita escapar y salvar sus vidas.

    Género: Adventures
    Drama
    Action
    Suspense
    Idioma: Castellano
    Duración: 108min.
    Año: 2011
    País: USA
    Director: Alister Grierson
    Productora: Universal Pictures / Relativity Media


    Solo los usuarios registrados pueden ver los links de descarga. ¡Registrate ahora, ES GRATIS! Solo los usuarios registrados pueden ver los links de descarga. ¡Registrate ahora, ES GRATIS! Solo los usuarios registrados pueden ver los links de descarga. ¡Registrate ahora, ES GRATIS!


    Reparto:


    [YOUTUBE]6LvaIZ0z3aE[/YOUTUBE]

    Rip: BDRip
    Tamaño: 9.84GB
    Formato: 1080p
    Contenedor: MKV
    Audio: Castellano AC3 5.1 | Inglés DTS 5.1
    Ripper: ??!

    Código:
    Format                                   : Matroska
    Format version                           : Version 2
    File size                                : 9.84 GiB
    Duration                                 : 1h 48mn
    Overall bit rate                         : 12.9 Mbps
    Encoded date                             : UTC 2011-06-14 15:24:03
    Writing application                      : mkvmerge v3.3.0 ('Language') built on Mar 24 2010 14:59:24
    Writing library                          : libebml v0.8.0 + libmatroska v0.9.0
    
    Video
    ID                                       : 1
    Format                                   : AVC
    Format/Info                              : Advanced Video Codec
    Format profile                           : High@L4.1
    Format settings, CABAC                   : Yes
    Format settings, ReFrames                : 4 frames
    Codec ID                                 : V_MPEG4/ISO/AVC
    Duration                                 : 1h 48mn
    Bit rate                                 : 11.0 Mbps
    Width                                    : 1 920 pixels
    Height                                   : 1 080 pixels
    Display aspect ratio                     : 16:9
    Frame rate                               : 23.976 fps
    Color space                              : YUV
    Chroma subsampling                       : 4:2:0
    Bit depth                                : 8 bits
    Scan type                                : Progressive
    Bits/(Pixel*Frame)                       : 0.221
    Stream size                              : 8.16 GiB (83%)
    Writing library                          : x264 core 114 r1913 5fd3dce
    Encoding settings                        : cabac=1 / ref=4 / deblock=1:-3:-3 / analyse=0x3:0x113 / me=umh / subme=9 / psy=1 / psy_rd=1.10:0.15 / mixed_ref=1 / me_range=32 / chroma_me=1 / trellis=2 / 8x8dct=1 / cqm=2 / deadzone=21,11 / fast_pskip=0 / chroma_qp_offset=-2 / threads=12 / sliced_threads=0 / nr=0 / decimate=1 / interlaced=0 / constrained_intra=0 / bframes=6 / b_pyramid=2 / b_adapt=2 / b_bias=0 / direct=3 / weightb=1 / open_gop=0 / weightp=2 / keyint=250 / keyint_min=23 / scenecut=40 / intra_refresh=0 / rc_lookahead=60 / rc=2pass / mbtree=1 / bitrate=10986 / ratetol=2.0 / qcomp=0.70 / qpmin=1 / qpmax=63 / qpstep=4 / cplxblur=20.0 / qblur=0.5 / vbv_maxrate=40000 / vbv_bufsize=30000 / nal_hrd=none / ip_ratio=1.40 / aq=1:0.90
    Language                                 : English
    
    Audio #1
    ID                                       : 2
    Format                                   : AC-3
    Format/Info                              : Audio Coding 3
    Mode extension                           : CM (complete main)
    Codec ID                                 : A_AC3
    Duration                                 : 1h 48mn
    Bit rate mode                            : Constant
    Bit rate                                 : 448 Kbps
    Channel(s)                               : 6 channels
    Channel positions                        : Front: L C R, Side: L R, LFE
    Sampling rate                            : 48.0 KHz
    Bit depth                                : 16 bits
    Compression mode                         : Lossy
    Delay relative to video                  : 500ms
    Stream size                              : 349 MiB (3%)
    Language                                 : Spanish
    
    Audio #2
    ID                                       : 3
    Format                                   : DTS
    Format/Info                              : Digital Theater Systems
    Codec ID                                 : A_DTS
    Duration                                 : 1h 48mn
    Bit rate mode                            : Constant
    Bit rate                                 : 1 510 Kbps
    Channel(s)                               : 6 channels
    Channel positions                        : Front: L C R, Side: L R, LFE
    Sampling rate                            : 48.0 KHz
    Bit depth                                : 24 bits
    Compression mode                         : Lossy
    Stream size                              : 1.15 GiB (12%)
    Language                                 : English
    
    Text #1
    ID                                       : 4
    Format                                   : UTF-8
    Codec ID                                 : S_TEXT/UTF8
    Codec ID/Info                            : UTF-8 Plain Text
    Title                                    : Subs Forzados Castellano
    Language                                 : Spanish
    
    Text #2
    ID                                       : 5
    Format                                   : UTF-8
    Codec ID                                 : S_TEXT/UTF8
    Codec ID/Info                            : UTF-8 Plain Text
    Title                                    : Subs Completos Castellano
    Language                                 : Spanish
    Links de Descarga:

    Código:
    		
    		
    Contenido Oculto Este post contiene información oculta, debes contestar el post o hacer click en el botón 'Gracias' para ver el contenido.


    Versión de la Película en 480p AQUÍ
    anento likes this.
    Todos mis aportes los subiré a Uploaded, si necesitas una cuenta premium en Up.to anímate y hazlo a través de mi link de referido Solo los usuarios registrados pueden ver los links de descarga. ¡Registrate ahora, ES GRATIS!
    La contraseña de los aportes es "Nukety"



  2. sargoth está desconectado *Novato reciente*
    Fecha de ingreso
    14 ene, 11
    Mensajes
    6

    Re: El Santuario (2011) BDRip 1080p | ESP AC3 5.1 | V.O. DTS 5.1

    muchas gracias

  3. Avatar de Nukety
    Nukety está desconectado Uploader
    Fecha de ingreso
    16 jun, 11
    Mensajes
    2,702

    Re: El Santuario (2011) BDRip 1080p | ESP AC3 5.1 | V.O. DTS 5.1

    Gracias Sargoth, disfruta la peli!
    Todos mis aportes los subiré a Uploaded, si necesitas una cuenta premium en Up.to anímate y hazlo a través de mi link de referido Solo los usuarios registrados pueden ver los links de descarga. ¡Registrate ahora, ES GRATIS!
    La contraseña de los aportes es "Nukety"

  4. shilkude está desconectado *Novato reciente*
    Fecha de ingreso
    08 feb, 10
    Mensajes
    10

    Re: El Santuario (2011) BDRip 1080p | ESP AC3 5.1 | V.O. DTS 5.1

    Despues de lo mega solo me funciona rapid, pero gracias de todas maneras

  5. anento está desconectado *Novato reciente*
    Fecha de ingreso
    05 abr, 12
    Mensajes
    5

    Re: El Santuario (2011) BDRip 1080p | ESP AC3 5.1 | V.O. DTS 5.1

    Buena Peli. Gracias.

  6. anento está desconectado *Novato reciente*
    Fecha de ingreso
    05 abr, 12
    Mensajes
    5

    Re: El Santuario (2011) BDRip 1080p | ESP AC3 5.1 | V.O. DTS 5.1

    No funciona nada.

  7. jm99099 está desconectado *User Pro*
    Fecha de ingreso
    07 oct, 09
    Mensajes
    588

    Re: El Santuario (2011) BDRip 1080p | ESP AC3 5.1 | V.O. DTS 5.1

    graciassssssssssssssssssssssssss

Temas similares

  1. El Santuario [Esp/Ing AC3,DTS][HD 1080p][Aventura][2011][FL,US,X7,WU]
    Por 19miguel84 en el foro Peliculas en HD-DVD, BluRay, HDTV Gratis
    Respuestas: 11
    Último mensaje: 15/08/2012, 12:36
  2. El Santuario 2011 [BDRip 480p][Castellano/MIC][Aventuras]
    Por rabbittwsl en el foro Moviez Peliculas
    Respuestas: 0
    Último mensaje: 06/06/2011, 17:32
  3. El Santuario, 2011,BdRip,SubEsp
    Por zonatodocine en el foro Peliculas DVDRip Subtituladas Gratis
    Respuestas: 2
    Último mensaje: 22/05/2011, 21:37
  4. El Santuario [2011] [BDRip] [Castellano] [UPS-WU]
    Por deportes2 en el foro Moviez Peliculas
    Respuestas: 0
    Último mensaje: 22/05/2011, 16:58
  5. El Santuario [BDRip 720p][Español][2011][Aventuras]
    Por nacho1500 en el foro Moviez Peliculas
    Respuestas: 0
    Último mensaje: 16/04/2011, 16:39

Etiquetas para este tema