Resultados 1 al 15 de 15

Grave Encounters 2011 [BRRip][Sub. Español]


Descargar Grave Encounters 2011 [BRRip][Sub. Español] Gratis 1 link Full Grave Encounters 2011 [BRRip][Sub. Español] por Mediafire con Crack, Serial, KeyGen Full Torrent

  1. xhyruja está desconectado Uploader
    Fecha de ingreso
    23 dic, 09
    Mensajes
    2,088

    Grave Encounters 2011 [BRRip][Sub. Español]




    Grave Encounters 2011 | BRRip | Sub. Español | 702 MB

    Lance Preston y el equipo de un show televisivo de cazadores de fantasmas llamado ‘Grave Encounters’, están grabando un episodio dentro del abandonado hospital psiquiátrico Collingwood, donde durante años se han informado de fenómenos inexplicables. Cualquier cosa en nombre de la televisión vale, así que se encierran durante una noche dentro del lugar. Pero no tardarán en darse cuenta de que el edificio está más que maldito, está vivo, y no tiene la menor intención de dejarles salir de allí con vida. Se encuentran sumidos en un laberinto de pasillos interminables y aterrorizados por los fantasmas de antiguos pacientes. No tardarán en cuestionarse su propia cordura, descubriendo la verdad que esconde el oscuro hospital y grabando lo que será su último


    Datos de la Pelicula

    Título original: Grave Encounters
    País: Canada
    Estreno en USA: 19/08/2011
    Estreno en España:
    Productora: Tribeca Film
    Director: The Vicious Brothers
    Guión: The Vicious Brothers
    Reparto: Mackenzie Gray, Juan Riedinger, Merwin Mondesir, Shawn Macdonald, Sean Rogerson, Michele Cummins, Ashleigh Gryzko, Luis Javier, Ben Wilkinson, Arthur Corber, Bob Rathie

    Info Codificacion
    General

    Complete name : Grave.Encounters.2011.BDRip.by_almacervecera.avi
    Format : AVI
    Format/Info : Audio Video Interleave
    File size : 701 MiB
    Duration : 1h 33mn
    Overall bit rate : 1 048 Kbps
    Writing application : VirtualDubMod 1.6.0.0 SURROUND (build 2560/release)
    Writing library : VirtualDubMod build 2560/release

    Video
    ID : 0
    Format : MPEG-4 Visual
    Format profile : Advanced Simple@L5
    Format settings, BVOP : 2
    Format settings, QPel : No
    Format settings, GMC : No warppoints
    Format settings, Matrix : Default (H.263)
    Codec ID : XVID
    Codec ID/Hint : XviD
    Duration : 1h 33mn
    Bit rate : 904 Kbps
    Width : 624 pixels
    Height : 352 pixels
    Display aspect ratio : 16:9
    Frame rate : 24.000 fps
    Color space : YUV
    Chroma subsampling : 4:2:0
    Bit depth : 8 bits
    Scan type : Progressive
    Compression mode : Lossy
    Bits/(Pixel*Frame) : 0.172
    Stream size : 605 MiB (86%)
    Writing library : XviD 1.2.1 (UTC 2008-12-04)

    Audio
    ID : 1
    Format : MPEG Audio
    Format version : Version 1
    Format profile : Layer 3
    Mode : Joint stereo
    Mode extension : MS Stereo
    Codec ID : 55
    Codec ID/Hint : MP3
    Duration : 1h 33mn
    Bit rate mode : Variable
    Bit rate : 128 Kbps
    Channel(s) : 2 channels
    Sampling rate : 48.0 KHz
    Compression mode : Lossy
    Stream size : 87.6 MiB (12%)
    Alignment : Aligned on interleaves
    Interleave, duration : 24 ms (0.58 video frame)
    Interleave, preload duration : 460 ms
    Writing library : LAME3.92
    Encoding settings : -m j -V 4 -q 2 -lowpass 17.5 –abr 128

    Subtitulos

    Dentro del rar en formato .srt

    CAPTURAS





    Sin contraseña | Facil Extraction | 1 Link


    Contenido Oculto Este post contiene información oculta, debes contestar el post o hacer click en el botón 'Gracias' para ver el contenido.

    Contenido Oculto Este post contiene información oculta, debes contestar el post o hacer click en el botón 'Gracias' para ver el contenido.

    Contenido Oculto Este post contiene información oculta, debes contestar el post o hacer click en el botón 'Gracias' para ver el contenido.
    <a href=Solo los usuarios registrados pueden ver los links de descarga. ¡Registrate ahora, ES GRATIS! " border="0" />



  2. ronidans está desconectado *Novato reciente*
    Fecha de ingreso
    25 jul, 09
    Mensajes
    3

    Re: Grave Encounters 2011 [BRRip][Sub. Español]

    excelente pelicula!

  3. Avatar de PatroxWare
    PatroxWare está desconectado Uploader
    Fecha de ingreso
    31 dic, 10
    Mensajes
    3,459

    Re: Grave Encounters 2011 [BRRip][Sub. Español]

    Muy buen aporte Compañer@ Enviado Al Home !

    Saludos !



    LINKS CAIDOS ENVIAR UN MP

    Recuerda siempre usar la opción CODE y HIDE para los enlaces descargables !




  4. noxswitch está desconectado *Experto*
    Fecha de ingreso
    04 sep, 09
    Ubicación
    Iquique, Chile.
    Mensajes
    338

    Re: Grave Encounters 2011 [BRRip][Sub. Español]

    Muuuuchas Gracias!


    No te enseñaron que el sol destruye alas?

  5. WICKEDSPEC está desconectado *User Pro*
    Fecha de ingreso
    21 ene, 10
    Mensajes
    699

    Re: Grave Encounters 2011 [BRRip][Sub. Español]

    GRACIAS POR EL APORTE!
    NO SE LA VAN A ACABAR!!! ...ATTE. AQUILES BAEZTA

  6. Avatar de El_SeBa
    El_SeBa está desconectado *Experto*
    Fecha de ingreso
    04 jul, 08
    Mensajes
    243

    Re: Grave Encounters 2011 [BRRip][Sub. Español]

    gracias bkn

  7. megamatador está desconectado *Master*
    Fecha de ingreso
    02 oct, 08
    Mensajes
    989

    Re: Grave Encounters 2011 [BRRip][Sub. Español]

    gracias por el aporte

  8. drekhen está desconectado *Experto*
    Fecha de ingreso
    12 jul, 10
    Mensajes
    327

    Re: Grave Encounters 2011 [BRRip][Sub. Español]

    graciassssssssssss

  9. pedritog está desconectado *Novato reciente*
    Fecha de ingreso
    03 ago, 09
    Mensajes
    9

    Re: Grave Encounters 2011 [BRRip][Sub. Español]

    graciasssssssssssssssss

  10. killeer está desconectado *User Pro*
    Fecha de ingreso
    12 nov, 09
    Mensajes
    692

    Re: Grave Encounters 2011 [BRRip][Sub. Español]


  11. excupido está desconectado *Dios del FORO*
    Fecha de ingreso
    17 jul, 10
    Mensajes
    1,010

    Re: Grave Encounters 2011 [BRRip][Sub. Español]

    graciassssssssssss

  12. vicpsx está desconectado *Novato reciente*
    Fecha de ingreso
    31 ago, 09
    Mensajes
    19

    Re: Grave Encounters 2011 [BRRip][Sub. Español]

    Gracias.......

  13. fjps20 está desconectado *Novato reciente*
    Fecha de ingreso
    03 feb, 09
    Mensajes
    10

    Re: Grave Encounters 2011 [BRRip][Sub. Español]

    gracias por el aporte esta rebueno

  14. matimartin está desconectado *Novato Avanzado*
    Fecha de ingreso
    24 oct, 08
    Mensajes
    76

    Re: Grave Encounters 2011 [BRRip][Sub. Español]

    muchisimas gracias

  15. leoelshaman está desconectado *Novato reciente*
    Fecha de ingreso
    22 jul, 08
    Mensajes
    20

    Re: Grave Encounters 2011 [BRRip][Sub. Español]

    buenisima !

Temas similares

  1. Grave Encounters 2011 dvdrip terror [sub español] [wu up]
    Por chancha125 en el foro Peliculas DVDRip Subtituladas Gratis
    Respuestas: 23
    Último mensaje: 30/11/2012, 03:45
  2. Respuestas: 1
    Último mensaje: 22/03/2012, 02:51
  3. Grave Encounters (dvd-rip) (sub-espanol) (terror) 1 link
    Por rabbittwsl en el foro Moviez Peliculas
    Respuestas: 0
    Último mensaje: 02/09/2011, 17:07

Etiquetas para este tema