Resultados 1 al 4 de 4

Harry Potter 2 La Cámara Secreta (2002) BDRip 1080p | ESP AC3 5.1 | V.O. DTS 5.1


Descargar Harry Potter 2 La Cámara Secreta (2002) BDRip 1080p | ESP AC3 5.1 | V.O. DTS 5.1 Gratis 1 link Full Harry Potter 2 La Cámara Secreta (2002) BDRip 1080p | ESP AC3 5.1 | V.O. DTS 5.1 por Mediafire con Crack, Serial, KeyGen Full Torrent

  1. Avatar de Nukety
    Nukety está desconectado Uploader
    Fecha de ingreso
    16 jun, 11
    Mensajes
    2,702

    Harry Potter 2 La Cámara Secreta (2002) BDRip 1080p | ESP AC3 5.1 | V.O. DTS 5.1 [ UL


    Harry Potter 2 (2002)
    La Cámara Secreta


    Sinopsis: Harry (Radcliffe) no ha pasado un buen verano: por una parte, ha tenido que soportar a su autoritarios y odiosos tíos, Petunia (Fiona Shaw) y Vernon Dursley (Griffiths), que temen sus poderes mágicos; por otra, parece que sus mejores amigos, Ron Weasley y Hermione Granger, le han olvidado, puesto que no han respondido a ninguna de sus cartas. Entonces, inesperadamente, aparece en su dormitorio Dobby, el elfo doméstico, y le dice que correrá un gran peligro si vuelve a Hogwarts. Ha sido precisamente Dobby quien ha impedido que Harry recibiera las cartas de Ron y Hermione, tratando de evitar que volviera al colegio de magos y hechiceros Pero, a pesar de los esfuerzos del elfo, Harry es rescatado del sombrío hogar de los Dursley por Ron y sus hermanos, con la ayuda de un coche volador, y recibido con los brazos abiertos en el cálido hogar de los Weasley.

    Pero, cuando a Harry y a Ron les impiden entrar en el andén 9 ¾ y subir al Expreso de Hogwarts para volver al colegio, los chicos toman medidas de emergencia para llegar a tiempo de empezar el nuevo trimestre. Sin embargo, el furibundo profesor Snape (Alan Rickman) exige que sean expulsados. Mientras tanto, las hazañas de nuestro héroe, durante el primer curso, se han extendido por todo Hogwarts y lo convierten en el centro de una atención no deseada. Entre sus nuevos admiradores se encuentran la hermana pequeña de Ron, Ginny (Bonnie Wright), el aspirante a fotógrafo Colin Creevey (Hugh Mitchell), y el nuevo y vanidoso profesor de defensa contra las artes oscuras, Gilderoy Lockhart (KENNETH BRANAGH).

    Sin embargo, ni siquiera Lockhart puede ofrecer una explicación plausible ni una solución contundente para combatir el terror que se está apoderando del colegio. En tal circunstancia, la atención se centra en Harry, pero todos empiezan a dudar de él. Todos, excepto Ron, Hermione y la pequeña y frágil Ginny, que vive volcada en su nuevo y misterioso diario. Pero Harry no decepcionará a sus amigos y se enfrentará a la oscura fuerza que acecha su querido colegio.

    Título: Harry Potter 2 ( La Cámara Secreta )
    Título Original: Harry Potter and the Chamber of Secrets
    Año: 2002
    País: Reino Unido
    Género: Adventures | Fantasy
    Duración: 154min.
    Director: Chris Columbus
    Productora: Coproducción Reino Unido-USA; Warner Bros. Pictures / Heyday Films / 1492 Pictures


    [YOUTUBE]yJVLyrNBbMQ[/YOUTUBE]
    Solo los usuarios registrados pueden ver los links de descarga. ¡Registrate ahora, ES GRATIS! Solo los usuarios registrados pueden ver los links de descarga. ¡Registrate ahora, ES GRATIS! Solo los usuarios registrados pueden ver los links de descarga. ¡Registrate ahora, ES GRATIS!


    Reparto:


    HDRip 1080p
    Rip: BDRip
    Formato: 1080p
    Contenedor: MKV
    Audio: Castellano AC3 5.1 | V.O. DTS 5.1

    Código:
    Format                           : Matroska
    File size                        : 13.0 GiB
    Duration                         : 2h 40mn
    Overall bit rate                 : 11.6 Mbps
    Encoded date                     : UTC 2009-07-17 21:47:57
    Writing application              : mkvmerge v2.7.0 ('Do It Again') built on Apr 15 2009 00:27:10
    Writing library                  : libebml v0.7.7 + libmatroska v0.8.1
    
    Video
    ID                               : 1
    Format                           : AVC
    Format/Info                      : Advanced Video Codec
    Format profile                   : High@L5.1
    Format settings, CABAC           : Yes
    Format settings, ReFrames        : 8 frames
    Codec ID                         : V_MPEG4/ISO/AVC
    Duration                         : 2h 40mn
    Bit rate                         : 9 447 Kbps
    Width                            : 1 920 pixels
    Height                           : 800 pixels
    Display aspect ratio             : 2.40:1
    Frame rate                       : 23.976 fps
    Color space                      : YUV
    Chroma subsampling               : 4:2:0
    Bit depth                        : 8 bits
    Scan type                        : Progressive
    Bits/(Pixel*Frame)               : 0.257
    Stream size                      : 10.4 GiB (79%)
    
    Writing library                  : x264 core 57 svn-709C
    Encoding settings                : cabac=1 / ref=5 / deblock=1:0:0 / analyse=0x3:0x133 / me=umh / fpel_cmp=sad / subme=6 / me-prepass=0 / brdo=0 / mixed_ref=1 / me_range=16 / chroma_me=1 / trellis=1 / 8x8dct=1 / cqm=2 / deadzone=4,6 / chroma_qp_offset=0 / threads=3 / nr=0 / decimate=1 / mbaff=0 / bframes=3 / b_pyramid=1 / b_adapt=1 / b_bias=0 / direct=3 / wpredb=1 / bime=1 / keyint=250 / keyint_min=25 / scenecut=40(pre) / rc=2pass / bitrate=9447 / ratetol=1.0 / rceq='blurCplx^(1-qComp)' / qcomp=0.60 / qpmin=10 / qpmax=51 / qpstep=4 / cplxblur=20.0 / qblur=0.5 / ip_ratio=1.40 / pb_ratio=1.30 / zones=218295,231514,b=0.15 / aq=1:0.3:15.0
    
    Audio #1
    ID                               : 2
    Format                           : AC-3
    Format/Info                      : Audio Coding 3
    Mode extension                   : CM (complete main)
    Codec ID                         : A_AC3
    Duration                         : 2h 40mn
    Bit rate mode                    : Constant
    Bit rate                         : 640 Kbps
    Channel(s)                       : 6 channels
    Channel positions                : Front: L C R, Side: L R, LFE
    Sampling rate                    : 48.0 KHz
    Bit depth                        : 16 bits
    Compression mode                 : Lossy
    Stream size                      : 737 MiB (6%)
    Language                         : Spanish
    
    Audio #2
    ID                               : 3
    Format                           : DTS
    Format/Info                      : Digital Theater Systems
    Codec ID                         : A_DTS
    Duration                         : 2h 40mn
    Bit rate mode                    : Constant
    Bit rate                         : 1 510 Kbps
    Channel(s)                       : 6 channels
    Channel positions                : Front: L C R, Side: L R, LFE
    Sampling rate                    : 48.0 KHz
    Bit depth                        : 24 bits
    Compression mode                 : Lossy
    Stream size                      : 1.70 GiB (13%)
    Title                            : DTS Ingles 5.1 @ 1,5 Mbps
    Language                         : English
    
    Text #1
    ID                               : 4
    Format                           : UTF-8
    Codec ID                         : S_TEXT/UTF8
    Codec ID/Info                    : UTF-8 Plain Text
    Title                            : Sub Forzados [GrupoHDS]
    Language                         : Spanish
    
    Text #2
    ID                               : 5
    Format                           : UTF-8
    Codec ID                         : S_TEXT/UTF8
    Codec ID/Info                    : UTF-8 Plain Text
    Title                            : Sub Esp [GrupoHDS]
    Language                         : Spanish
    
    Text #3
    ID                               : 6
    Format                           : UTF-8
    Codec ID                         : S_TEXT/UTF8
    Codec ID/Info                    : UTF-8 Plain Text
    Title                            : Sub Eng [GrupoHDS]
    Language                         : English
    Links de Descarga:

    Contenido Oculto Este post contiene información oculta, debes contestar el post o hacer click en el botón 'Gracias' para ver el contenido.


    Última edición por Nukety; 12/02/2012 a las 06:41
    Todos mis aportes los subiré a Uploaded, si necesitas una cuenta premium en Up.to anímate y hazlo a través de mi link de referido Solo los usuarios registrados pueden ver los links de descarga. ¡Registrate ahora, ES GRATIS!
    La contraseña de los aportes es "Nukety"



  2. CARLOS_1963 está desconectado *User Pro*
    Fecha de ingreso
    10 sep, 09
    Mensajes
    660

    Re: Harry Potter 2 La Cámara Secreta (2002) BDRip 1080p | ESP AC3 5.1 | V.O. DTS 5.1

    graciassssssssssssssssssssssssssssssssssssssssss

  3. Avatar de Nukety
    Nukety está desconectado Uploader
    Fecha de ingreso
    16 jun, 11
    Mensajes
    2,702

    Re: Harry Potter 2 La Cámara Secreta (2002) BDRip 1080p | ESP AC3 5.1 | V.O. DTS 5.1

    . : : ⇪ Aporte Resubido : : .

    Todos mis aportes los subiré a Uploaded, si necesitas una cuenta premium en Up.to anímate y hazlo a través de mi link de referido Solo los usuarios registrados pueden ver los links de descarga. ¡Registrate ahora, ES GRATIS!
    La contraseña de los aportes es "Nukety"

  4. alex_andro está desconectado *Novato Avanzado*
    Fecha de ingreso
    23 ene, 10
    Mensajes
    63

    Re: Harry Potter 2 La Cámara Secreta (2002) BDRip 1080p | ESP AC3 5.1 | V.O. DTS 5.1

    graciassssssssssssssssssssssssssss

Temas similares

  1. Harry Potter y La Camara Secreta [HDRIP][ESPAÑOL][2002][AVENTURAS]
    Por Aledky en el foro Peliculas en HD-DVD, BluRay, HDTV Gratis
    Respuestas: 12
    Último mensaje: 25/04/2013, 20:40
  2. Harry Potter y la cámara secreta [Esp/ing AC3 DTS][HD 1080p][Fantasia][2002][MU,FL,HF
    Por 19miguel84 en el foro Peliculas en HD-DVD, BluRay, HDTV Gratis
    Respuestas: 33
    Último mensaje: 20/02/2013, 14:08
  3. Harry Potter y la camara secreta (HDRip)(castellano)(2002)[WU]
    Por flakito1 en el foro Moviez Peliculas
    Respuestas: 1
    Último mensaje: 05/09/2011, 14:27
  4. Harry Potter y la camara secreta (HDRip)(castellano)(2002)[WU]
    Por evilsega en el foro Moviez Peliculas
    Respuestas: 0
    Último mensaje: 26/07/2011, 05:54
  5. Harry Potter y la Camara de los Secretos[2002][BDrip 1080p h264 mkv];AC3(es-Es)/DTS(e
    Por zaxius en el foro Peliculas en HD-DVD, BluRay, HDTV Gratis
    Respuestas: 0
    Último mensaje: 20/07/2011, 18:27

Etiquetas para este tema