Resultados 1 al 30 de 30
Like Tree13Likes
  • 11 Post By Cadagoto
  • 2 Post By valentinads

Las aventuras de Sammy 2009 3D SBS BDRip 1080p MKV Español Latino 5.1/Castellano/Ingl


Descargar Las aventuras de Sammy 2009 3D SBS BDRip 1080p MKV Español Latino 5.1/Castellano/Ingl Gratis 1 link Full Las aventuras de Sammy 2009 3D SBS BDRip 1080p MKV Español Latino 5.1/Castellano/Ingl por Mediafire con Crack, Serial, KeyGen Full Torrent

  1. Avatar de Cadagoto
    Cadagoto está desconectado *Dios del FORO*
    Fecha de ingreso
    22 sep, 09
    Ubicación
    En El Mejor Lugar De La Web ...La Mía :)
    Mensajes
    4,582

    Las aventuras de Sammy 2009 3D SBS BDRip 1080p MKV Español Latino 5.1/Castellano/Ingl





    Las aventuras de Sammy 2009 3D SBS BDRip 1080p MKV Español Latino 5.1/Castellano/Ingles Animacion







    TITULO ORIGINAL Sammy's avonturen: De geheime doorgang (Sammy's Adventures: The Secret Passage)
    AÑO 2009
    PAIS
    DURACIÓN 85 minutos
    DIRECTOR Ben Stassen
    GUIÓN Domonic Paris
    MUSICA Ramin Djawadi
    FOTOGRAFIA Animation
    REPARTO Animation
    PRODUCTORA nWave Pictures / Illuminata Pictures
    PREMIOS 2010: Premios del Cine Europeo: Nominada mejor película de animación
    GENERO Animación. Aventuras. Infantil | Aventuras marinas. 3-D


    Código:
    Las Aventuras De Sammy 3D SBS BDrip 1080p Dual.mkv
    Format : Matroska
    Format version : Version 2
    File size : 6.08 GiB
    Duration : 1h 25mn
    Overall bit rate : 10.2 Mbps
    Encoded date : UTC 2011-09-21 12:44:26
    Writing application : mkvmerge v4.9.1 ('Ich will') creado el Jul 11 2011 23:53:15
    Writing library : libebml v1.2.1 + libmatroska v1.1.1
    
    Video
    ID : 1
    Format : AVC
    Format/Info : Advanced Video Codec
    Format profile : High@L5.1
    Format settings, CABAC : Yes
    Format settings, ReFrames : 2 frames
    Codec ID : V_MPEG4/ISO/AVC
    Duration : 1h 25mn
    Bit rate : 7 556 Kbps
    Width : 1 920 pixels
    Height : 1 080 pixels
    Display aspect ratio : 16:9
    Frame rate : 23.976 fps
    Color space : YUV
    Chroma subsampling : 4:2:0
    Bit depth : 8 bits
    Scan type : Progressive
    Bits/(Pixel*Frame) : 0.152
    Stream size : 4.52 GiB (74%)
    Language : English
    
    Audio #1
    ID : 2
    Format : AC-3
    Format/Info : Audio Coding 3
    Mode extension : CM (complete main)
    Codec ID : A_AC3
    Duration : 1h 25mn
    Bit rate mode : Constant
    Bit rate : 448 Kbps
    Channel(s) : 6 channels
    Channel positions : Front: L C R, Side: L R, LFE
    Sampling rate : 48.0 KHz
    Bit depth : 16 bits
    Compression mode : Lossy
    Delay relative to video : 20ms
    Stream size : 274 MiB (4%)
    Language : Spanish
    
    Audio #2
    ID : 3
    Format : DTS
    Format/Info : Digital Theater Systems
    Codec ID : A_DTS
    Duration : 1h 25mn
    Bit rate mode : Constant
    Bit rate : 1 510 Kbps
    Channel(s) : 6 channels
    Channel positions : Front: L C R, Side: L R, LFE
    Sampling rate : 48.0 KHz
    Bit depth : 24 bits
    Compression mode : Lossy
    Delay relative to video : 3ms
    Stream size : 924 MiB (15%)
    Language : English
    
    Audio #3
    ID : 4
    Format : AC-3
    Format/Info : Audio Coding 3
    Mode extension : CM (complete main)
    Codec ID : A_AC3
    Duration : 1h 25mn
    Bit rate mode : Constant
    Bit rate : 448 Kbps
    Channel(s) : 6 channels
    Channel positions : Front: L C R, Side: L R, LFE
    Sampling rate : 48.0 KHz
    Bit depth : 16 bits
    Compression mode : Lossy
    Stream size : 274 MiB (4%)
    Title : Latino
    Language : Spanish
    
    Text
    ID : 5
    Format : UTF-8
    Codec ID : S_TEXT/UTF8
    Codec ID/Info : UTF-8 Plain Text
    Language : Spanish
    Esta película muestra a traves de la infancia de una tortuga (unos cincuenta años) los efectos del calentamiento global y la necesidad de emprender cambios en la dirección de la sociedad.










    Contenido Oculto Este post contiene información oculta, debes contestar el post o hacer click en el botón 'Gracias' para ver el contenido.



    .
    Si Los Links Estan Caidos,avisame Por Favor Asi Tratare De Reponerlos!

    Aportar Toma Buen Tiempo,Resubir Mucho Mas ,Agradecer No Cuesta Nada !






    CadagotoHD.Com
    Visita Mi Blog Con Mis Aportes (Firma Permitida Por Admin Warez)



  2. fedesilvia está desconectado *Novato reciente*
    Fecha de ingreso
    27 ene, 10
    Mensajes
    8

    Re: Las aventuras de Sammy 2009 3D SBS BDRip 1080p MKV Español Latino 5.1/Castellano/

    Very good xddddddddddddd

  3. valentinads está desconectado *Novato Avanzado*
    Fecha de ingreso
    13 ene, 10
    Mensajes
    39

    Re: Las aventuras de Sammy 2009 3D SBS BDRip 1080p MKV Español Latino 5.1/Castellano/

    Cita Iniciado por Cadagoto Ver mensaje



    Las aventuras de Sammy 2009 3D SBS BDRip 1080p MKV Español Latino 5.1/Castellano/Ingles Animacion







    TITULO ORIGINAL Sammy's avonturen: De geheime doorgang (Sammy's Adventures: The Secret Passage)
    AÑO 2009
    PAIS
    DURACIÓN 85 minutos
    DIRECTOR Ben Stassen
    GUIÓN Domonic Paris
    MUSICA Ramin Djawadi
    FOTOGRAFIA Animation
    REPARTO Animation
    PRODUCTORA nWave Pictures / Illuminata Pictures
    PREMIOS 2010: Premios del Cine Europeo: Nominada mejor película de animación
    GENERO Animación. Aventuras. Infantil | Aventuras marinas. 3-D


    Código:
    Las Aventuras De Sammy 3D SBS BDrip 1080p Dual.mkv
    Format : Matroska
    Format version : Version 2
    File size : 6.08 GiB
    Duration : 1h 25mn
    Overall bit rate : 10.2 Mbps
    Encoded date : UTC 2011-09-21 12:44:26
    Writing application : mkvmerge v4.9.1 ('Ich will') creado el Jul 11 2011 23:53:15
    Writing library : libebml v1.2.1 + libmatroska v1.1.1
    
    Video
    ID : 1
    Format : AVC
    Format/Info : Advanced Video Codec
    Format profile : High@L5.1
    Format settings, CABAC : Yes
    Format settings, ReFrames : 2 frames
    Codec ID : V_MPEG4/ISO/AVC
    Duration : 1h 25mn
    Bit rate : 7 556 Kbps
    Width : 1 920 pixels
    Height : 1 080 pixels
    Display aspect ratio : 16:9
    Frame rate : 23.976 fps
    Color space : YUV
    Chroma subsampling : 4:2:0
    Bit depth : 8 bits
    Scan type : Progressive
    Bits/(Pixel*Frame) : 0.152
    Stream size : 4.52 GiB (74%)
    Language : English
    
    Audio #1
    ID : 2
    Format : AC-3
    Format/Info : Audio Coding 3
    Mode extension : CM (complete main)
    Codec ID : A_AC3
    Duration : 1h 25mn
    Bit rate mode : Constant
    Bit rate : 448 Kbps
    Channel(s) : 6 channels
    Channel positions : Front: L C R, Side: L R, LFE
    Sampling rate : 48.0 KHz
    Bit depth : 16 bits
    Compression mode : Lossy
    Delay relative to video : 20ms
    Stream size : 274 MiB (4%)
    Language : Spanish
    
    Audio #2
    ID : 3
    Format : DTS
    Format/Info : Digital Theater Systems
    Codec ID : A_DTS
    Duration : 1h 25mn
    Bit rate mode : Constant
    Bit rate : 1 510 Kbps
    Channel(s) : 6 channels
    Channel positions : Front: L C R, Side: L R, LFE
    Sampling rate : 48.0 KHz
    Bit depth : 24 bits
    Compression mode : Lossy
    Delay relative to video : 3ms
    Stream size : 924 MiB (15%)
    Language : English
    
    Audio #3
    ID : 4
    Format : AC-3
    Format/Info : Audio Coding 3
    Mode extension : CM (complete main)
    Codec ID : A_AC3
    Duration : 1h 25mn
    Bit rate mode : Constant
    Bit rate : 448 Kbps
    Channel(s) : 6 channels
    Channel positions : Front: L C R, Side: L R, LFE
    Sampling rate : 48.0 KHz
    Bit depth : 16 bits
    Compression mode : Lossy
    Stream size : 274 MiB (4%)
    Title : Latino
    Language : Spanish
    
    Text
    ID : 5
    Format : UTF-8
    Codec ID : S_TEXT/UTF8
    Codec ID/Info : UTF-8 Plain Text
    Language : Spanish
    Esta película muestra a traves de la infancia de una tortuga (unos cincuenta años) los efectos del calentamiento global y la necesidad de emprender cambios en la dirección de la sociedad.










    Contenido Oculto Este post contiene información oculta, debes contestar el post o hacer click en el botón 'Gracias' para ver el contenido.



    .
    Si Los Links Estan Caidos,avisame Por Favor Asi Tratare De Reponerlos!

    Aportar Toma Buen Tiempo,Resubir Mucho Mas ,Agradecer No Cuesta Nada !






    graaaaaaaaaaaaaaacias ´por el aporte
    lalocva and berth2008 like this.

  4. XSurfer está desconectado *Novato reciente*
    Fecha de ingreso
    23 feb, 12
    Mensajes
    2

    Re: Las aventuras de Sammy 2009 3D SBS BDRip 1080p MKV Español Latino 5.1/Castellano/

    Un capo como siempre, gracias!!

  5. likinchan está desconectado *User Avanzado*
    Fecha de ingreso
    05 nov, 09
    Mensajes
    164

    Re: Las aventuras de Sammy 2009 3D SBS BDRip 1080p MKV Español Latino 5.1/Castellano/

    graciasssssssss

  6. hernanzeto está desconectado *Novato reciente*
    Fecha de ingreso
    21 sep, 11
    Mensajes
    5

    Re: Las aventuras de Sammy 2009 3D SBS BDRip 1080p MKV Español Latino 5.1/Castellano/

    gracielaaaaaaaaaaaaaaaa

  7. lalocva está desconectado *Novato reciente*
    Fecha de ingreso
    28 nov, 11
    Mensajes
    6

    Re: Las aventuras de Sammy 2009 3D SBS BDRip 1080p MKV Español Latino 5.1/Castellano/

    muchas graciaaaaaaas

  8. ommemmo está desconectado *Novato reciente*
    Fecha de ingreso
    15 ago, 12
    Mensajes
    7

    Re: Las aventuras de Sammy 2009 3D SBS BDRip 1080p MKV Español Latino 5.1/Castellano/

    muchas gracias por el aporte!

  9. copperfield está desconectado *Novato Avanzado*
    Fecha de ingreso
    23 oct, 08
    Mensajes
    62

    Re: Las aventuras de Sammy 2009 3D SBS BDRip 1080p MKV Español Latino 5.1/Castellano/

    Graaaaaaaciaaaaaaaaaas

  10. luiscesars está desconectado *Novato Avanzado*
    Fecha de ingreso
    04 dic, 10
    Mensajes
    44

    Re: Las aventuras de Sammy 2009 3D SBS BDRip 1080p MKV Español Latino 5.1/Castellano/

    Gran aporte, gracias.

  11. luiscesars está desconectado *Novato Avanzado*
    Fecha de ingreso
    04 dic, 10
    Mensajes
    44

    Re: Las aventuras de Sammy 2009 3D SBS BDRip 1080p MKV Español Latino 5.1/Castellano/

    Excelente aporte, muchas gracias.

  12. lomasar está desconectado *Novato reciente*
    Fecha de ingreso
    03 ene, 13
    Mensajes
    1

    Re: Las aventuras de Sammy 2009 3D SBS BDRip 1080p MKV Español Latino 5.1/Castellano/

    Muy buen aporte, estoy esperando poder verla.

  13. matsis06 está desconectado *User Pro*
    Fecha de ingreso
    20 sep, 08
    Mensajes
    420

    Re: Las aventuras de Sammy 2009 3D SBS BDRip 1080p MKV Español Latino 5.1/Castellano/

    Gracias.......

  14. gatios está desconectado *User Avanzado*
    Fecha de ingreso
    28 sep, 09
    Mensajes
    113

    Re: Las aventuras de Sammy 2009 3D SBS BDRip 1080p MKV Español Latino 5.1/Castellano/

    Mil Graciass

  15. PanGPanG está desconectado *Novato reciente*
    Fecha de ingreso
    13 jun, 11
    Mensajes
    14

    Re: Las aventuras de Sammy 2009 3D SBS BDRip 1080p MKV Español Latino 5.1/Castellano/

    Gracias a ver si van los enlaces

  16. sephiroth618 está desconectado *Novato Avanzado*
    Fecha de ingreso
    29 dic, 09
    Mensajes
    31

    Re: Las aventuras de Sammy 2009 3D SBS BDRip 1080p MKV Español Latino 5.1/Castellano/

    gracias por el aporte

  17. ed33 está desconectado *Novato reciente*
    Fecha de ingreso
    20 nov, 11
    Mensajes
    21

    Re: Las aventuras de Sammy 2009 3D SBS BDRip 1080p MKV Español Latino 5.1/Castellano/

    muchas gracias

  18. acerline está desconectado *Novato reciente*
    Fecha de ingreso
    28 mar, 12
    Mensajes
    28

    Re: Las aventuras de Sammy 2009 3D SBS BDRip 1080p MKV Español Latino 5.1/Castellano/

    gracias , probaremos a ver que tal

  19. berth2008 está desconectado *Novato reciente*
    Fecha de ingreso
    15 oct, 12
    Mensajes
    4

    Re: Las aventuras de Sammy 2009 3D SBS BDRip 1080p MKV Español Latino 5.1/Castellano/

    thanks for share with us

  20. cfha está desconectado *Novato reciente*
    Fecha de ingreso
    29 ago, 09
    Mensajes
    4

    Re: Las aventuras de Sammy 2009 3D SBS BDRip 1080p MKV Español Latino 5.1/Castellano/

    gracias, podrian decirme donde esta el boton gracias?

  21. lcmr está desconectado *Novato Avanzado*
    Fecha de ingreso
    23 oct, 09
    Mensajes
    71

    Re: Las aventuras de Sammy 2009 3D SBS BDRip 1080p MKV Español Latino 5.1/Castellano/

    gracias por el aporte

  22. exflakito está desconectado *Novato Avanzado*
    Fecha de ingreso
    10 feb, 08
    Mensajes
    38

    Re: Las aventuras de Sammy 2009 3D SBS BDRip 1080p MKV Español Latino 5.1/Castellano/

    esta peli esta mu buena en 3 d es lo mejor en efectos la parte de la culebrita huy

  23. orlacoorlaco está desconectado *Novato reciente*
    Fecha de ingreso
    02 sep, 12
    Mensajes
    9

    Re: Las aventuras de Sammy 2009 3D SBS BDRip 1080p MKV Español Latino 5.1/Castellano/

    gracias x el aporte

  24. marijuanero está desconectado *Novato reciente*
    Fecha de ingreso
    10 nov, 10
    Mensajes
    22

    Re: Las aventuras de Sammy 2009 3D SBS BDRip 1080p MKV Español Latino 5.1/Castellano/

    Gracias por el aporte

  25. marijuanero está desconectado *Novato reciente*
    Fecha de ingreso
    10 nov, 10
    Mensajes
    22

    Re: Las aventuras de Sammy 2009 3D SBS BDRip 1080p MKV Español Latino 5.1/Castellano/

    Muchas gracias

  26. PACO007 está desconectado *Novato reciente*
    Fecha de ingreso
    23 may, 10
    Mensajes
    23

    Re: Las aventuras de Sammy 2009 3D SBS BDRip 1080p MKV Español Latino 5.1/Castellano/

    Graciasssssss!

  27. pekegema está desconectado *Novato reciente*
    Fecha de ingreso
    24 jun, 11
    Mensajes
    6

    Re: Las aventuras de Sammy 2009 3D SBS BDRip 1080p MKV Español Latino 5.1/Castellano/

    graciassssss

  28. se_aviles está desconectado *Novato reciente*
    Fecha de ingreso
    15 dic, 08
    Mensajes
    9

    Re: Las aventuras de Sammy 2009 3D SBS BDRip 1080p MKV Español Latino 5.1/Castellano/

    graciasssss

  29. chewymesy está desconectado *Novato Avanzado*
    Fecha de ingreso
    04 oct, 09
    Mensajes
    30

    Re: Las aventuras de Sammy 2009 3D SBS BDRip 1080p MKV Español Latino 5.1/Castellano/

    voy a probar

  30. chewymesy está desconectado *Novato Avanzado*
    Fecha de ingreso
    04 oct, 09
    Mensajes
    30

    Re: Las aventuras de Sammy 2009 3D SBS BDRip 1080p MKV Español Latino 5.1/Castellano/

    ok probando

Temas similares

  1. A la Sombra del Poder [BDrip 1080p cast DTS / Ingl DTS][Sub.Esp/ingl][thriller][2009]
    Por legox en el foro Peliculas en HD-DVD, BluRay, HDTV Gratis
    Respuestas: 1
    Último mensaje: 03/04/2012, 18:42
  2. El Ultimo Exorcismo 2010 BDRip 1080p Mkv Trial Español Latino/Castellano AC3 5.1/Ingl
    Por Cadagoto en el foro Peliculas en HD-DVD, BluRay, HDTV Gratis
    Respuestas: 1
    Último mensaje: 20/01/2012, 21:53
  3. Las aventuras de Sammy (2009)[DVDScreener][Español Latino]
    Por makubex_tnt en el foro Moviez Peliculas
    Respuestas: 5
    Último mensaje: 11/02/2011, 15:00
  4. Las aventuras de Sammy (2009)[BRScreener][Castellano]
    Por makubex_tnt en el foro Moviez Peliculas
    Respuestas: 0
    Último mensaje: 13/01/2011, 02:42