Resultados 1 al 6 de 6
Like Tree1Likes
  • 1 Post By Nukety

Harry Potter 5 Y la Orden del Fénix (2007) BDRip 1080p | ESP AC3 5.1 | V.O. DTS 5.1


Descargar Harry Potter 5 Y la Orden del Fénix (2007) BDRip 1080p | ESP AC3 5.1 | V.O. DTS 5.1 Gratis 1 link Full Harry Potter 5 Y la Orden del Fénix (2007) BDRip 1080p | ESP AC3 5.1 | V.O. DTS 5.1 por Mediafire con Crack, Serial, KeyGen Full Torrent

  1. Avatar de Nukety
    Nukety está desconectado Uploader
    Fecha de ingreso
    16 jun, 11
    Mensajes
    2,702

    Harry Potter 5 Y la Orden del Fénix (2007) BDRip 1080p | ESP AC3 5.1 | V.O. DTS 5.1

    Harry Potter 5 (2007)
    Y la Orden del Fénix


    Sinopsis: Las tediosas vacaciones en casa de sus tíos todavía no han acabado y Harry se encuentra más inquieto que nunca. Apenas ha tenido noticias de Ron y Hermione y presiente que algo extraño está sucediendo en Hogwarts. En efecto, cuando por fin comienza otro curso en el famoso colegio de magia y hechicería, sus temores se hacen realidad. El Ministerio de Magia niega que Voldemort haya regresado e inicia una campaña de desprestigio contra Harry y Dumbledore, encomendando a la horrible profesora Dolores Umbridge la tarea de vigilar todos sus movimientos. Así, pues, además de sentirse solo e incomprendido, Harry sospecha que Voldemort puede adivinar sus pensamientos e intuye que el temible mago trata de apoderarse de un objeto secreto que le permitiría recuperar su poder destructivo...

    Género: Adventures
    Drama
    Fantasy
    Idioma: Castellano
    Duración: 138min.
    Año: 2007
    País: Reino Unido
    Director: David Yates
    Productora: Coproducción GB-USA; Warner Bros. Pictures


    Solo los usuarios registrados pueden ver los links de descarga. ¡Registrate ahora, ES GRATIS! Solo los usuarios registrados pueden ver los links de descarga. ¡Registrate ahora, ES GRATIS! Solo los usuarios registrados pueden ver los links de descarga. ¡Registrate ahora, ES GRATIS!


    Reparto:


    [YOUTUBE]wmef9GgR3T4[/YOUTUBE]Rip: BDRip
    Tamaño: 12.9GB
    Formato: 1080p
    Contenedor: MKV
    Audio: Castellano AC3 5.1 | Inglés DTS 5.1
    Ripper: Shadowlord



    Código:
    Format                           : Matroska
    File size                        : 12.9 GiB
    Duration                         : 2h 18mn
    Overall bit rate                 : 13.4 Mbps
    Encoded date                     : UTC 2008-03-08 12:09:38
    Writing application              : mkvmerge v2.1.0 ('Another Place To Fall') built on Aug 19 2007 13:40:07
    Writing library                  : libebml v0.7.7 + libmatroska v0.8.1
    
    Video
    ID                               : 1
    Format                           : AVC
    Format/Info                      : Advanced Video Codec
    Format profile                   : High@L5.1
    Format settings, CABAC           : Yes
    Format settings, ReFrames        : 8 frames
    Codec ID                         : V_MPEG4/ISO/AVC
    Duration                         : 2h 18mn
    Bit rate                         : 11.2 Mbps
    Width                            : 1 920 pixels
    Height                           : 800 pixels
    Display aspect ratio             : 2.40:1
    Frame rate                       : 23.976 fps
    Color space                      : YUV
    Chroma subsampling               : 4:2:0
    Bit depth                        : 8 bits
    Scan type                        : Progressive
    Bits/(Pixel*Frame)               : 0.305
    Stream size                      : 10.6 GiB (82%)
    Writing library                  : x264 core 56 svn-680
    Encoding settings                : cabac=1 / ref=5 / deblock=1:-3:-3 / analyse=0x3:0x133 / me=umh / subme=7 / brdo=1 / mixed_ref=1 / me_range=16 / chroma_me=1 / trellis=1 / 8x8dct=1 / cqm=2 / deadzone=21,11 / chroma_qp_offset=0 / threads=6 / nr=0 / decimate=1 / mbaff=0 / bframes=16 / b_pyramid=1 / b_adapt=1 / b_bias=0 / direct=3 / wpredb=1 / bime=1 / keyint=250 / keyint_min=25 / scenecut=40(pre) / rc=2pass / bitrate=11219 / ratetol=1.0 / rceq='blurCplx^(1-qComp)' / qcomp=0.60 / qpmin=10 / qpmax=51 / qpstep=4 / cplxblur=20.0 / qblur=0.5 / ip_ratio=1.40 / pb_ratio=1.30 / aq=1:0.3:15.0
    Language                         : Spanish
    
    Audio #1
    ID                               : 2
    Format                           : AC-3
    Format/Info                      : Audio Coding 3
    Mode extension                   : CM (complete main)
    Codec ID                         : A_AC3
    Duration                         : 2h 18mn
    Bit rate mode                    : Constant
    Bit rate                         : 640 Kbps
    Channel(s)                       : 6 channels
    Channel positions                : Front: L C R, Side: L R, LFE
    Sampling rate                    : 48.0 KHz
    Bit depth                        : 16 bits
    Compression mode                 : Lossy
    Stream size                      : 633 MiB (5%)
    Title                            : Espa1ol AC3 5.1
    Language                         : Spanish
    
    Audio #2
    ID                               : 3
    Format                           : DTS
    Format/Info                      : Digital Theater Systems
    Codec ID                         : A_DTS
    Duration                         : 2h 18mn
    Bit rate mode                    : Constant
    Bit rate                         : 1 510 Kbps
    Channel(s)                       : 6 channels
    Channel positions                : Front: L C R, Side: L R, LFE
    Sampling rate                    : 48.0 KHz
    Bit depth                        : 24 bits
    Compression mode                 : Lossy
    Stream size                      : 1.46 GiB (11%)
    Title                            : Ingl)s DTS 5.1
    Language                         : English
    
    Text #1
    ID                               : 4
    Format                           : UTF-8
    Codec ID                         : S_TEXT/UTF8
    Codec ID/Info                    : UTF-8 Plain Text
    Title                            : Espa1ol
    Language                         : Spanish
    
    Text #2
    ID                               : 5
    Format                           : UTF-8
    Codec ID                         : S_TEXT/UTF8
    Codec ID/Info                    : UTF-8 Plain Text
    Title                            : Ingl)s
    Language                         : English
    Links de Descarga:

    Código:
    		
    		
    Contenido Oculto Este post contiene información oculta, debes contestar el post o hacer click en el botón 'Gracias' para ver el contenido.
    Ciel2269 likes this.
    Todos mis aportes los subiré a Uploaded, si necesitas una cuenta premium en Up.to anímate y hazlo a través de mi link de referido Solo los usuarios registrados pueden ver los links de descarga. ¡Registrate ahora, ES GRATIS!
    La contraseña de los aportes es "Nukety"



  2. dawgun está desconectado *Novato reciente*
    Fecha de ingreso
    14 nov, 10
    Mensajes
    15

    Re: Harry Potter 5 Y la Orden del Fénix (2007) BDRip 1080p | ESP AC3 5.1 | V.O. DTS 5

    gracias

  3. sorianosebas está desconectado *Novato reciente*
    Fecha de ingreso
    26 ago, 12
    Mensajes
    21

    Re: Harry Potter 5 Y la Orden del Fénix (2007) BDRip 1080p | ESP AC3 5.1 | V.O. DTS 5

    dgfgfgfglñlñlñlñlñ

  4. Artix155 está desconectado *Novato reciente*
    Fecha de ingreso
    03 abr, 09
    Mensajes
    16

    Re: Harry Potter 5 Y la Orden del Fénix (2007) BDRip 1080p | ESP AC3 5.1 | V.O. DTS 5

    graciassss

  5. takaneti está desconectado *Novato reciente*
    Fecha de ingreso
    23 feb, 13
    Mensajes
    16

    Re: Harry Potter 5 Y la Orden del Fénix (2007) BDRip 1080p | ESP AC3 5.1 | V.O. DTS 5

    muchas gracias.

  6. Ciel2269 está desconectado *Novato reciente*
    Fecha de ingreso
    27 jun, 13
    Mensajes
    2

    Re: Harry Potter 5 Y la Orden del Fénix (2007) BDRip 1080p | ESP AC3 5.1 | V.O. DTS 5

    gracias ^^

Temas similares

  1. Respuestas: 51
    Último mensaje: 25/11/2012, 13:58
  2. Harry Potter y la Orden del Fénix DVD RIP 2007
    Por chronicle5 en el foro Peliculas DVDRip en Español Latino
    Respuestas: 10
    Último mensaje: 10/11/2012, 14:31
  3. Harry Potter y la Orden del Fénix [Esp/Ing AC3,DTS][HD 1080p][Fantasia][2007][MU,FL,K
    Por 19miguel84 en el foro Peliculas en HD-DVD, BluRay, HDTV Gratis
    Respuestas: 36
    Último mensaje: 13/10/2012, 12:07
  4. Harry Potter y la Orden Del Fenix[2007][BDrip 1080p h264 mkv];AC3(es-Es)/DTS(en-US)[F
    Por zaxius en el foro Peliculas en HD-DVD, BluRay, HDTV Gratis
    Respuestas: 1
    Último mensaje: 24/07/2011, 05:44
  5. Harry Potter y la Orden del Fénix (2007)[DVDRip][Fantástico][3GP][MU/HF]
    Por israntxa en el foro Peliculas para Celulares Gratis
    Respuestas: 3
    Último mensaje: 23/02/2011, 02:50

Etiquetas para este tema