Resultados 1 al 2 de 2

Toy Story 3 (2010) BDRip 720p | ESP AC3 5.1 | ENG DTS 5.1


Descargar Toy Story 3 (2010) BDRip 720p | ESP AC3 5.1 | ENG DTS 5.1 Gratis 1 link Full Toy Story 3 (2010) BDRip 720p | ESP AC3 5.1 | ENG DTS 5.1 por Mediafire con Crack, Serial, KeyGen Full Torrent

  1. Avatar de Nukety
    Nukety está desconectado Uploader
    Fecha de ingreso
    16 jun, 11
    Mensajes
    2,702

    Toy Story 3 (2010) BDRip 720p | ESP AC3 5.1 | ENG DTS 5.1


    Toy Story 3 (2010)


    Sinopsis: Cuando su dueño Andy se prepara para ir a la universidad, el vaquero Woody, el astronauta Buzz y el resto de sus amigos juguetes comienzan a preocuparse por su incierto futuro. Efectivamente todos acaban en una guardería, donde por ejemplo la muñeca Barbie conocerá al guapo Ken. Esta reunión de nuestros amigos con otros nuevos juguetes no será sino el principio de una serie de trepidantes y divertidas aventuras.

    Género: Animation
    Comedy
    Adventures
    Fantasy
    Kids
    Duración: 103min.
    Año: 2010
    País: USA
    Director: Lee Unkrich
    Productora: Pixar Animation Studios / Walt Disney Pictures


    Solo los usuarios registrados pueden ver los links de descarga. ¡Registrate ahora, ES GRATIS! Solo los usuarios registrados pueden ver los links de descarga. ¡Registrate ahora, ES GRATIS! Solo los usuarios registrados pueden ver los links de descarga. ¡Registrate ahora, ES GRATIS!


    Reparto:


    [YOUTUBE]lzS19m0yXA4[/YOUTUBE]Rip: BDRip
    Tamaño: 4.65GB
    Formato: 720p
    Contenedor: MKV
    Audio: Castellano AC3 5.1 | Inglés DTS 5.1
    Ripper: Andres.sito1992



    Código:
    Format                           : Matroska
    File size                        : 4.65 GiB
    Duration                         : 1h 42mn
    Overall bit rate                 : 6 488 Kbps
    Encoded date                     : UTC 2010-11-22 01:33:16
    Writing application              : mkvmerge v2.1.0 ('Another Place To Fall') built on Aug 19 2007 13:40:07
    Writing library                  : libebml v0.7.7 + libmatroska v0.8.1
    
    Video
    ID                               : 1
    Format                           : AVC
    Format/Info                      : Advanced Video Codec
    Format profile                   : High@L4.1
    Format settings, CABAC           : Yes
    Format settings, ReFrames        : 4 frames
    Codec ID                         : V_MPEG4/ISO/AVC
    Duration                         : 1h 42mn
    Bit rate                         : 4 591 Kbps
    Width                            : 1 280 pixels
    Height                           : 720 pixels
    Display aspect ratio             : 16:9
    Frame rate                       : 23.976 fps
    Color space                      : YUV
    Chroma subsampling               : 4:2:0
    Bit depth                        : 8 bits
    Scan type                        : Progressive
    Bits/(Pixel*Frame)               : 0.208
    Stream size                      : 3.20 GiB (69%)
    Writing library                  : x264 core 107 r1745 4785e8e
    Encoding settings                : cabac=1 / ref=5 / deblock=1:0:0 / analyse=0x3:0x133 / me=umh / subme=7 / psy=1 / psy_rd=1.00:0.20 / mixed_ref=1 / me_range=16 / chroma_me=1 / trellis=1 / 8x8dct=1 / cqm=0 / deadzone=21,11 / fast_pskip=1 / chroma_qp_offset=-6 / threads=12 / sliced_threads=0 / nr=0 / decimate=1 / interlaced=0 / constrained_intra=0 / bframes=3 / b_pyramid=1 / b_adapt=1 / b_bias=0 / direct=3 / weightb=1 / open_gop=0 / weightp=0 / keyint=250 / keyint_min=23 / scenecut=40 / intra_refresh=0 / rc_lookahead=40 / rc=2pass / mbtree=1 / bitrate=4591 / ratetol=1.0 / qcomp=0.60 / qpmin=10 / qpmax=51 / qpstep=4 / cplxblur=20.0 / qblur=0.5 / ip_ratio=1.40 / aq=1:1.00
    Language                         : English
    
    Audio #1
    ID                               : 2
    Format                           : AC-3
    Format/Info                      : Audio Coding 3
    Mode extension                   : CM (complete main)
    Codec ID                         : A_AC3
    Duration                         : 1h 42mn
    Bit rate mode                    : Constant
    Bit rate                         : 384 Kbps
    Channel(s)                       : 6 channels
    Channel positions                : Front: L C R, Side: L R, LFE
    Sampling rate                    : 44.1 KHz
    Bit depth                        : 16 bits
    Compression mode                 : Lossy
    Stream size                      : 282 MiB (6%)
    Title                            : Audio Castellano
    Language                         : Spanish
    
    Audio #2
    ID                               : 4
    Format                           : DTS
    Format/Info                      : Digital Theater Systems
    Format profile                   : ES
    Codec ID                         : A_DTS
    Duration                         : 1h 42mn
    Bit rate mode                    : Constant
    Bit rate                         : 1 510 Kbps
    Channel(s)                       : 6 channels
    Channel positions                : Front: L C R, Side: L R, LFE
    Sampling rate                    : 48.0 KHz
    Bit depth                        : 24 bits
    Compression mode                 : Lossy
    Stream size                      : 1.08 GiB (23%)
    
    Text
    ID                               : 3
    Format                           : UTF-8
    Codec ID                         : S_TEXT/UTF8
    Codec ID/Info                    : UTF-8 Plain Text
    Title                            : Subtitulos Espa
    Language                         : Spanish
    Links de Descarga:

    Código:
    		
    		
    Contenido Oculto Este post contiene información oculta, debes contestar el post o hacer click en el botón 'Gracias' para ver el contenido.


    Versión de la Película en Alta Definición 1080p AQUÍ
    Todos mis aportes los subiré a Uploaded, si necesitas una cuenta premium en Up.to anímate y hazlo a través de mi link de referido Solo los usuarios registrados pueden ver los links de descarga. ¡Registrate ahora, ES GRATIS!
    La contraseña de los aportes es "Nukety"



  2. sanbernald está desconectado *Novato Avanzado*
    Fecha de ingreso
    14 dic, 09
    Mensajes
    36

    Re: Toy Story 3 (2010) BDRip 720p | ESP AC3 5.1 | ENG DTS 5.1

    Muchas gracias

Temas similares

  1. Brave Story [BDRip][SUB-ESP][720p][PELICULA]
    Por mecallita en el foro Anime y Manga
    Respuestas: 6
    Último mensaje: 13/10/2013, 21:40
  2. Toy Story 3 (2010) BDRip 1080p | ESP AC3 5.1 | ENG DTS 5.1
    Por Nukety en el foro Peliculas en HD-DVD, BluRay, HDTV Gratis
    Respuestas: 1
    Último mensaje: 11/12/2011, 09:50
  3. [MU]Toy Story 3(2010)[Animación][Bdrip.m-720p.Dual.AC3.subs]
    Por lagartish en el foro Peliculas en HD-DVD, BluRay, HDTV Gratis
    Respuestas: 15
    Último mensaje: 07/07/2011, 06:17
  4. Toy Story 3 BDrip 2010 VOSE
    Por bssnes-hdD en el foro Peliculas DVDRip Subtituladas Gratis
    Respuestas: 0
    Último mensaje: 19/10/2010, 16:54
  5. Toy Story 3 BDrip 2010 VOSE
    Por bssnes-hdD en el foro Peliculas DVDRip Subtituladas Gratis
    Respuestas: 0
    Último mensaje: 17/10/2010, 18:37

Etiquetas para este tema