Resultados 1 al 7 de 7
Like Tree2Likes
  • 2 Post By Nukety

Invasión a la Tierra (2011) BDRip 1080p | ESP AC3 5.1 | ENG DTS 5.1


Descargar Invasión a la Tierra (2011) BDRip 1080p | ESP AC3 5.1 | ENG DTS 5.1 Gratis 1 link Full Invasión a la Tierra (2011) BDRip 1080p | ESP AC3 5.1 | ENG DTS 5.1 por Mediafire con Crack, Serial, KeyGen Full Torrent

  1. Avatar de Nukety
    Nukety está desconectado Uploader
    Fecha de ingreso
    16 jun, 11
    Mensajes
    2,702

    Invasión a la Tierra (2011) BDRip 1080p | ESP AC3 5.1 | ENG DTS 5.1

    Invasión a la Tierra (2011)


    Sinopsis: Durante años ha habido casos documentados de avistamientos de OVNIS en todo el mundo. Pero en 2011, lo que hasta ese momento eran simples avistamientos se convierten en una terrible realidad cundo la Tierra es atacada por fuerza desconocidas. Mientras todos son testigos de cómo caen las grandes ciudades del mundo, Los Ángeles se convierte en el último bastión de la humanidad en una batalla que nadie esperaba. Un sargento de la Marina (Aaron Eckhart) y su nueva división son los que tendrán que definir los límites frente a un enemigo como jamás se habían encontrado.

    Género: Action
    Sci-Fi
    Duración: 116min.
    Año: 2011
    País: USA
    Director: Jonathan Liebesman
    Productora: Columbia Pictures / Original Film


    Solo los usuarios registrados pueden ver los links de descarga. ¡Registrate ahora, ES GRATIS! Solo los usuarios registrados pueden ver los links de descarga. ¡Registrate ahora, ES GRATIS! Solo los usuarios registrados pueden ver los links de descarga. ¡Registrate ahora, ES GRATIS!


    Reparto:


    [YOUTUBE]Cs5WcOAV_nI[/YOUTUBE]Rip: BDRip
    Tamaño: 12.2GB
    Formato: 1080p
    Contenedor: MKV
    Audio: Castellano AC3 5.1 | Inglés DTS 5.1
    Ripper: Leisan



    Código:
    Format                           : Matroska
    File size                        : 12.2 GiB
    Duration                         : 1h 56mn
    Overall bit rate                 : 15.1 Mbps
    Encoded date                     : UTC 2011-07-12 19:37:48
    Writing application              : mkvmerge v3.3.0 ('Language') built on Mar 24 2010 14:59:24
    Writing library                  : libebml v0.8.0 + libmatroska v0.9.0
    
    Video
    ID                               : 1
    Format                           : AVC
    Format/Info                      : Advanced Video Codec
    Format profile                   : High@L4.1
    Format settings, CABAC           : Yes
    Format settings, ReFrames        : 5 frames
    Codec ID                         : V_MPEG4/ISO/AVC
    Duration                         : 1h 56mn
    Bit rate                         : 12.7 Mbps
    Width                            : 1 920 pixels
    Height                           : 800 pixels
    Display aspect ratio             : 2.40:1
    Frame rate                       : 23.976 fps
    Color space                      : YUV
    Chroma subsampling               : 4:2:0
    Bit depth                        : 8 bits
    Scan type                        : Progressive
    Bits/(Pixel*Frame)               : 0.344
    Stream size                      : 10.0 GiB (82%)
    Title                            : Battle<Los.Angeles.2011
    Writing library                  : x264 core 114 r1924 08d04a4
    Encoding settings                : cabac=1 / ref=5 / deblock=1:-3:-3 / analyse=0x3:0x113 / me=umh / subme=10 / psy=1 / psy_rd=1.05:0.10 / mixed_ref=1 / me_range=48 / chroma_me=1 / trellis=2 / 8x8dct=1 / cqm=2 / deadzone=21,11 / fast_pskip=0 / chroma_qp_offset=-2 / threads=12 / sliced_threads=0 / nr=0 / decimate=1 / interlaced=0 / constrained_intra=0 / bframes=6 / b_pyramid=2 / b_adapt=2 / b_bias=0 / direct=3 / weightb=1 / open_gop=0 / weightp=2 / keyint=250 / keyint_min=23 / scenecut=40 / intra_refresh=0 / rc_lookahead=60 / rc=2pass / mbtree=1 / bitrate=12660 / ratetol=1.0 / qcomp=0.70 / qpmin=1 / qpmax=63 / qpstep=4 / cplxblur=20.0 / qblur=0.5 / vbv_maxrate=40000 / vbv_bufsize=40000 / nal_hrd=none / ip_ratio=1.40 / aq=2:0.90
    Language                         : English
    
    Audio #1
    ID                               : 2
    Format                           : AC-3
    Format/Info                      : Audio Coding 3
    Mode extension                   : CM (complete main)
    Codec ID                         : A_AC3
    Duration                         : 1h 56mn
    Bit rate mode                    : Constant
    Bit rate                         : 448 Kbps
    Channel(s)                       : 6 channels
    Channel positions                : Front: L C R, Side: L R, LFE
    Sampling rate                    : 48.0 KHz
    Bit depth                        : 16 bits
    Compression mode                 : Lossy
    Delay relative to video          : 24ms
    Stream size                      : 372 MiB (3%)
    Language                         : Spanish
    
    Audio #2
    ID                               : 3
    Format                           : DTS
    Format/Info                      : Digital Theater Systems
    Codec ID                         : A_DTS
    Duration                         : 1h 56mn
    Bit rate mode                    : Constant
    Bit rate                         : 1 510 Kbps
    Channel(s)                       : 6 channels
    Channel positions                : Front: L C R, Side: L R, LFE
    Sampling rate                    : 48.0 KHz
    Bit depth                        : 24 bits
    Compression mode                 : Lossy
    Stream size                      : 1.23 GiB (10%)
    Title                            : DTS-CORE 1536K
    Language                         : English
    
    Audio #3
    ID                               : 4
    Format                           : AC-3
    Format/Info                      : Audio Coding 3
    Mode extension                   : CM (complete main)
    Codec ID                         : A_AC3
    Duration                         : 1h 56mn
    Bit rate mode                    : Constant
    Bit rate                         : 448 Kbps
    Channel(s)                       : 6 channels
    Channel positions                : Front: L C R, Side: L R, LFE
    Sampling rate                    : 48.0 KHz
    Bit depth                        : 16 bits
    Compression mode                 : Lossy
    Stream size                      : 372 MiB (3%)
    Language                         : Spanish
    
    Text #1
    ID                               : 5
    Format                           : UTF-8
    Codec ID                         : S_TEXT/UTF8
    Codec ID/Info                    : UTF-8 Plain Text
    Language                         : Spanish
    
    Text #2
    ID                               : 6
    Format                           : UTF-8
    Codec ID                         : S_TEXT/UTF8
    Codec ID/Info                    : UTF-8 Plain Text
    Language                         : Spanish
    Links de Descarga:

    Código:
    		
    		
    Contenido Oculto Este post contiene información oculta, debes contestar el post o hacer click en el botón 'Gracias' para ver el contenido.


    Versión de la Película en 480p AQUÍ

    Versión de la Película en Alta Definición 720p AQUÍ
    alexxia83 and otakundesu like this.
    Todos mis aportes los subiré a Uploaded, si necesitas una cuenta premium en Up.to anímate y hazlo a través de mi link de referido Solo los usuarios registrados pueden ver los links de descarga. ¡Registrate ahora, ES GRATIS!
    La contraseña de los aportes es "Nukety"



  2. daffonchio88 está desconectado *Novato Avanzado*
    Fecha de ingreso
    18 feb, 10
    Mensajes
    69

    Re: Invasión a la Tierra (2011) BDRip 1080p | ESP AC3 5.1 | ENG DTS 5.1

    graciassssssssss

  3. apolosal está desconectado *Novato reciente*
    Fecha de ingreso
    23 mar, 12
    Mensajes
    13

    Re: Invasión a la Tierra (2011) BDRip 1080p | ESP AC3 5.1 | ENG DTS 5.1

    graciasssssssssssssssssssssss

  4. fercata está desconectado *Novato Avanzado*
    Fecha de ingreso
    27 abr, 10
    Mensajes
    86

    Re: Invasión a la Tierra (2011) BDRip 1080p | ESP AC3 5.1 | ENG DTS 5.1

    gracias, espero funcione

  5. alexxia83 está desconectado *Novato Avanzado*
    Fecha de ingreso
    04 nov, 08
    Mensajes
    34

    Re: Invasión a la Tierra (2011) BDRip 1080p | ESP AC3 5.1 | ENG DTS 5.1

    Graciasssssssssssss

  6. yuliodelgado está desconectado *Novato reciente*
    Fecha de ingreso
    10 ago, 12
    Mensajes
    2

    Re: Invasión a la Tierra (2011) BDRip 1080p | ESP AC3 5.1 | ENG DTS 5.1

    gguyff.h.f

  7. yuliodelgado está desconectado *Novato reciente*
    Fecha de ingreso
    10 ago, 12
    Mensajes
    2

    Re: Invasión a la Tierra (2011) BDRip 1080p | ESP AC3 5.1 | ENG DTS 5.1

    gracias gracia gracias

  8. otakundesu está desconectado *Novato reciente*
    Fecha de ingreso
    24 oct, 12
    Mensajes
    3

    Re: Invasión a la Tierra (2011) BDRip 1080p | ESP AC3 5.1 | ENG DTS 5.1

    gracias por el aporte

Temas similares

  1. Invasion a la Tierra (2011)[Ciencia ficcion, Extrarrestres][Bdrip.m-1080p.Dual.AC3.su
    Por lagartish en el foro Peliculas en HD-DVD, BluRay, HDTV Gratis
    Respuestas: 3
    Último mensaje: 24/10/2012, 01:36
  2. Invasión a la tierra (2011)[BDrip m-1080p x264 mkv][Trial Ac3 (Esp-Eng-Lat)(sub)][Cie
    Por guerrero36 en el foro Peliculas en HD-DVD, BluRay, HDTV Gratis
    Respuestas: 27
    Último mensaje: 20/07/2012, 16:41
  3. Invasión a la Tierra Batallas los Angeles l 2011 l BDrip 1080p l Castellano AC3 l Sub
    Por legox en el foro Peliculas en HD-DVD, BluRay, HDTV Gratis
    Respuestas: 2
    Último mensaje: 26/09/2011, 18:07
  4. Invasion a la Tierra ;[2011];[Accion][BDrip 1080p];AC3(es-Es)(es-Lat);DTS-HD(en-Us)Su
    Por XTUCA en el foro Peliculas en HD-DVD, BluRay, HDTV Gratis
    Respuestas: 2
    Último mensaje: 11/09/2011, 21:30

Etiquetas para este tema