Resultados 1 al 5 de 5

Este Muerto está muy Vivo[HDrip][1989][Comedia][Wu-Us]


Descargar Este Muerto está muy Vivo[HDrip][1989][Comedia][Wu-Us] Gratis 1 link Full Este Muerto está muy Vivo[HDrip][1989][Comedia][Wu-Us] por Mediafire con Crack, Serial, KeyGen Full Torrent

  1. Avatar de powerxd
    powerxd está desconectado Uploader
    Fecha de ingreso
    23 jul, 11
    Mensajes
    1,847

    Este Muerto está muy Vivo[HDrip][1989][Comedia][Wu-Us]




    TÍTULO ORIGINAL
    Weekend at Bernie's
    AÑO
    1989
    DURACIÓN
    99 min.
    Trailers/Vídeos
    PAÍS
    [Estados Unidos] Sección visual
    DIRECTOR Ted
    Kotcheff
    GUIÓN Robert Klane
    MÚSICA Andy Summers
    FOTOGRAFÍA François
    Protat
    REPARTO Andrew McCarthy, Jonathan Silverman, Catherine Mary Stewart,
    Terry Kiser, Don Calfa, Catherine Parks, Louis Giambalvo, Ted
    Kotcheff
    PRODUCTORA Artisan Entertainment
    GÉNERO Comedia | Comedia
    juvenil

    SINOPSIS
    Dos jóvenes empleados de una compañía de seguros,
    Larry y Richard, se van a la costa a pasar tranquilamente el primer lunes de
    septiembre, el Día del Trabajo. Larry y Richard se han comportado como empleados
    modélicos, y han descubierto un importante plan en el que se pensaba realizar un
    importante desfalco en la empresa donde trabajan. El director de la compañía,
    Bernie Lomax, les recompensa invitándoles a una casa que posee en Hampton, una
    zona muy lujosa de la costa de Long Island. Bernie sería el anfitrión ideal...
    si no fuera por un pequeño detalle: está muerto. (FILMAFFINITY)







    General
    Complete
    name : E:\EMEMV Evilsega.avi
    Format : AVI
    Format/Info : Audio Video
    Interleave
    File size : 1.67 GiB
    Duration : 1h 34mn
    Overall bit rate : 2
    545 Kbps
    Writing application : MEncoder Sherpya-SVN-r32674-4.2.5
    Writing
    library : VirtualDub build 32839/release

    Video
    ID : 0
    Format :
    MPEG-4 Visual
    Format profile : Advanced Simple@L5
    Format settings, BVOP :
    2
    Format settings, QPel : No
    Format settings, GMC : No
    warppoints
    Format settings, Matrix : Custom
    Codec ID : XVID
    Codec
    ID/Hint : XviD
    Duration : 1h 34mn
    Bit rate : 2 344 Kbps
    Width : 720
    pixels
    Height : 400 pixels
    Display aspect ratio : 16:9
    Frame rate :
    25.000 fps
    Original frame rate : 23.976 fps
    Color space : YUV
    Chroma
    subsampling : 4:2:0
    Bit depth : 8 bits
    Scan type :
    Progressive
    Compression mode : Lossy
    Bits/(Pixel*Frame) : 0.326
    Stream
    size : 1.54 GiB (92%)
    Writing library : XviD 1.2.1 (UTC
    2008-12-04)

    Audio
    ID : 1
    Format : AC-3
    Format/Info : Audio
    Coding 3
    Mode extension : CM (complete main)
    Codec ID : 2000
    Duration :
    1h 34mn
    Bit rate mode : Constant
    Bit rate : 192 Kbps
    Channel(s) : 2
    channels
    Channel positions : Front: L R
    Sampling rate : 48.0 KHz
    Bit
    depth : 16 bits
    Compression mode : Lossy
    Stream size : 129 MiB
    (8%)
    Alignment : Aligned on interleaves
    Interleave, duration : 40 ms (1.00
    video frame)
    Interleave, preload duration : 512 ms












    Contenido Oculto Este post contiene información oculta, debes contestar el post o hacer click en el botón 'Gracias' para ver el contenido.







    Contenido Oculto Este post contiene información oculta, debes contestar el post o hacer click en el botón 'Gracias' para ver el contenido.



  2. demonleo está desconectado *User Avanzado*
    Fecha de ingreso
    23 sep, 10
    Mensajes
    153

    Re: Este Muerto está muy Vivo[HDrip][1989][Comedia][Wu-Us]

    ddddddddddddddddddddddddddddddddddddddddrrrrrrrrrr rrrrrrrrrrrrrrrrrrrrrrrrrrrrrrrrrrrrrrrrrrrrrrrrrr rrrrrrrrrrrraaaaaaaaaaaaaaaaaaaaaaaaaaaaaaaaaaaaaa aaaaaafr

  3. ukyomix está desconectado *Novato reciente*
    Fecha de ingreso
    21 nov, 11
    Mensajes
    3

    Re: Este Muerto está muy Vivo[HDrip][1989][Comedia][Wu-Us]

    gracias por el enlace

  4. arley0704 está desconectado *Novato Avanzado*
    Fecha de ingreso
    14 feb, 12
    Mensajes
    31

    Re: Este Muerto está muy Vivo[HDrip][1989][Comedia][Wu-Us]

    Cita Iniciado por powerxd Ver mensaje
    [CENTER]


    TÍTULO ORIGINAL
    Weekend at Bernie's
    AÑO
    1989
    DURACIÓN
    99 min.
    Trailers/Vídeos
    PAÍS
    [Estados Unidos] Sección visual
    DIRECTOR Ted
    Kotcheff
    GUIÓN Robert Klane
    MÚSICA Andy Summers
    FOTOGRAFÍA François
    Protat
    REPARTO Andrew McCarthy, Jonathan Silverman, Catherine Mary Stewart,
    Terry Kiser, Don Calfa, Catherine Parks, Louis Giambalvo, Ted
    Kotcheff
    PRODUCTORA Artisan Entertainment
    GÉNERO Comedia | Comedia
    juvenil

    SINOPSIS
    Dos jóvenes empleados de una compañía de seguros,
    Larry y Richard, se van a la costa a pasar tranquilamente el primer lunes de
    septiembre, el Día del Trabajo. Larry y Richard se han comportado como empleados
    modélicos, y han descubierto un importante plan en el que se pensaba realizar un
    importante desfalco en la empresa donde trabajan. El director de la compañía,
    Bernie Lomax, les recompensa invitándoles a una casa que posee en Hampton, una
    zona muy lujosa de la costa de Long Island. Bernie sería el anfitrión ideal...
    si no fuera por un pequeño detalle: está muerto. (FILMAFFINITY)







    General
    Complete
    name : E:\EMEMV Evilsega.avi
    Format : AVI
    Format/Info : Audio Video
    Interleave
    File size : 1.67 GiB
    Duration : 1h 34mn
    Overall bit rate : 2
    545 Kbps
    Writing application : MEncoder Sherpya-SVN-r32674-4.2.5
    Writing
    library : VirtualDub build 32839/release

    Video
    ID : 0
    Format :
    MPEG-4 Visual
    Format profile : Advanced Simple@L5
    Format settings, BVOP :
    2
    Format settings, QPel : No
    Format settings, GMC : No
    warppoints
    Format settings, Matrix : Custom
    Codec ID : XVID
    Codec
    ID/Hint : XviD
    Duration : 1h 34mn
    Bit rate : 2 344 Kbps
    Width : 720
    pixels
    Height : 400 pixels
    Display aspect ratio : 16:9
    Frame rate :
    25.000 fps
    Original frame rate : 23.976 fps
    Color space : YUV
    Chroma
    subsampling : 4:2:0
    Bit depth : 8 bits
    Scan type :
    Progressive
    Compression mode : Lossy
    Bits/(Pixel*Frame) : 0.326
    Stream
    size : 1.54 GiB (92%)
    Writing library : XviD 1.2.1 (UTC
    2008-12-04)

    Audio
    ID : 1
    Format : AC-3
    Format/Info : Audio
    Coding 3
    Mode extension : CM (complete main)
    Codec ID : 2000
    Duration :
    1h 34mn
    Bit rate mode : Constant
    Bit rate : 192 Kbps
    Channel(s) : 2
    channels
    Channel positions : Front: L R
    Sampling rate : 48.0 KHz
    Bit
    depth : 16 bits
    Compression mode : Lossy
    Stream size : 129 MiB
    (8%)
    Alignment : Aligned on interleaves
    Interleave, duration : 40 ms (1.00
    video frame)
    Interleave, preload duration : 512 ms












    hidden content may not be quoted




    [COLOR=#222222]

    hidden content may not be quoted
    gracias hermano

  5. fjgjfgkfhgh está desconectado *Novato Avanzado*
    Fecha de ingreso
    07 nov, 09
    Mensajes
    45

    Re: Este Muerto está muy Vivo[HDrip][1989][Comedia][Wu-Us]

    graciaaaaaaaaaaaaaaaaaaaaas

Temas similares

  1. Vivo o Muerto[2006][Dvdrip][Latino] 1 Link
    Por depeliculax en el foro Peliculas DVDRip en Español Latino
    Respuestas: 3
    Último mensaje: 14/08/2012, 01:12
  2. DOA - Vivo o Muerto [2006] [Accion] [DVDRip] [Español Latino]
    Por Dmls en el foro Peliculas DVDRip en Español Latino
    Respuestas: 1
    Último mensaje: 14/04/2012, 18:10
  3. Aquí huele a muerto... (¡Pues yo no he sido!) (1989) [DVDRip
    Por zaltko en el foro Peliculas DVDRip en Castellano
    Respuestas: 1
    Último mensaje: 01/01/2012, 22:38
  4. DOA - Vivo o Muerto (2006) Dvdrip Latino [Accion]
    Por algryss en el foro Peliculas DVDRip en Español Latino
    Respuestas: 1
    Último mensaje: 29/12/2011, 15:54
  5. Este Muerto está muy Vivo[HDrip][1989][Comedia][Wu-Fs]
    Por evilsega en el foro Moviez Peliculas
    Respuestas: 0
    Último mensaje: 13/09/2011, 00:39

Etiquetas para este tema