Resultados 1 al 6 de 6

Thor 3D (2011) Anaglyph 1080p BluRay x264 AVCHD


Descargar Thor 3D (2011) Anaglyph 1080p BluRay x264 AVCHD Gratis 1 link Full Thor 3D (2011) Anaglyph 1080p BluRay x264 AVCHD por Mediafire con Crack, Serial, KeyGen Full Torrent

  1. abcmpq está desconectado *User Avanzado*
    Fecha de ingreso
    30 abr, 11
    Mensajes
    133

    Thor 3D (2011) Anaglyph 1080p BluRay x264 AVCHD


    Thor 3D (2011) Anaglyph 1080p BluRay x264 AVCHD



    SCREENSHOT


    STORYLINE:
    The powerful but arrogant warrior Thor is cast out of the fantastic realm of Asgard and sent to live

    amongst humans on Earth, where he soon becomes one of their finest defenders.
    IMDB:
    Código:
    http://www.imdb.com/title/tt0800369/
    INFO:
    Código:
    General
    Complete name                    : Thor 3D Anaglyph 1080p.mkv
    Format                           : Matroska
    File size                        : 4.16 GiB
    Duration                         : 1h 54mn
    Overall bit rate                 : 5 192 Kbps
    Encoded date                     : UTC 2011-09-07 04:59:33
    Writing application              : mkvmerge v4.0.0 ('The Stars were mine') built on Jun  6 2010 16:18:42
    Writing library                  : libebml v1.0.0 + libmatroska v1.0.0
    
    Video
    ID                               : 1
    Format                           : AVC
    Format/Info                      : Advanced Video Codec
    Format profile                   : High@L4.0
    Format settings, CABAC           : Yes
    Format settings, ReFrames        : 4 frames
    Codec ID                         : V_MPEG4/ISO/AVC
    Duration                         : 1h 54mn
    Bit rate                         : 3 712 Kbps
    Width                            : 1 920 pixels
    Height                           : 1 080 pixels
    Display aspect ratio             : 16:9
    Frame rate mode                  : Variable
    Frame rate                       : 23.976 fps
    Color space                      : YUV
    Chroma subsampling               : 4:2:0
    Bit depth                        : 8 bits
    Scan type                        : Progressive
    Bits/(Pixel*Frame)               : 0.075
    Stream size                      : 2.87 GiB (69%)
    Writing library                  : x264 core 112
    
    Language                         : English
    Color primaries                  : BT.709-5, BT.1361, IEC 61966-2-4, SMPTE RP177
    Transfer characteristics         : BT.709-5, BT.1361
    Matrix coefficients              : BT.709-5, BT.1361, IEC 61966-2-4 709, SMPTE RP177
    
    Audio
    ID                               : 2
    Format                           : DTS
    Format/Info                      : Digital Theater Systems
    Format profile                   : ES
    Codec ID                         : A_DTS
    Duration                         : 1h 54mn
    Bit rate mode                    : Constant
    Bit rate                         : 1 510 Kbps
    Channel(s)                       : 6 channels
    Channel positions                : Front: L C R, Side: L R, LFE
    Sampling rate                    : 48.0 KHz
    Bit depth                        : 24 bits
    Compression mode                 : Lossy
    Stream size                      : 1.21 GiB (29%)
    Language                         : English
    You need red/cyan glasses to be able to view 3D effects


    Works on any computer and any monitor and you can use any player.
    Verry good picture quallity verry good sound quallity and verry good rendering.
    Size: 4.16 GiB
    1920X1080p60i crystal image

    PASSWORD: 3danaglyph.ct
    DOWNLOAD:
    Contenido Oculto Este post contiene información oculta, debes contestar el post o hacer click en el botón 'Gracias' para ver el contenido.

    The folder contains 3 screenshots and a text file with the links to the movie on the same host as folder.

    I recommend you use JDownloader to resolve any downloading issues
    Código:
    http://www.jdownloader.org/download



  2. Chifri2010 está desconectado *Novato reciente*
    Fecha de ingreso
    07 dic, 10
    Mensajes
    6

    Re: Thor 3D (2011) Anaglyph 1080p BluRay x264 AVCHD

    gracias!!!!!!!

  3. juanpasousuke está desconectado *Novato reciente*
    Fecha de ingreso
    04 nov, 11
    Mensajes
    3

    Re: Thor 3D (2011) Anaglyph 1080p BluRay x264 AVCHD

    muy buen post descargando

  4. alcidrsv está desconectado *Experto*
    Fecha de ingreso
    14 dic, 08
    Mensajes
    306

    Re: Thor 3D (2011) Anaglyph 1080p BluRay x264 AVCHD

    graxcxxxxxxxxx

  5. piolamago está desconectado *Novato Avanzado*
    Fecha de ingreso
    29 jul, 09
    Mensajes
    37

    Re: Thor 3D (2011) Anaglyph 1080p BluRay x264 AVCHD

    gracias a ver si funcionan los links

  6. Geltops está desconectado *Novato Avanzado*
    Fecha de ingreso
    02 may, 12
    Mensajes
    57

    Re: Thor 3D (2011) Anaglyph 1080p BluRay x264 AVCHD

    Graciasssssssssss

Temas similares

  1. Galapagos 3D (2007) Anaglyph 1080p BluRay x264 AVCHD
    Por abcmpq en el foro Peliculas en HD-DVD, BluRay, HDTV Gratis
    Respuestas: 6
    Último mensaje: 24/02/2013, 21:39
  2. Drive Angry 3D (2011) Anaglyph 1080p BluRay x264 AVCHD
    Por abcmpq en el foro Peliculas en HD-DVD, BluRay, HDTV Gratis
    Respuestas: 10
    Último mensaje: 12/12/2012, 08:27
  3. Piranha 3D (2010) Anaglyph 1080p BluRay x264 AVCHD
    Por abcmpq en el foro Peliculas en HD-DVD, BluRay, HDTV Gratis
    Respuestas: 8
    Último mensaje: 11/12/2011, 14:54
  4. The Green Hornet 3D (2011) Anaglyph 1080p BluRay x264 AVCHD
    Por abcmpq en el foro Peliculas en HD-DVD, BluRay, HDTV Gratis
    Respuestas: 1
    Último mensaje: 20/11/2011, 11:53
  5. Sanctum 3D (2011) Anaglyph 1080p BluRay x264 AVCHD
    Por abcmpq en el foro Peliculas en HD-DVD, BluRay, HDTV Gratis
    Respuestas: 1
    Último mensaje: 07/09/2011, 04:31