Reimaginación del cuento clásico de "Caperucita Roja". En una aldea medieval que está siendo atemorizada por la aparición de un hombre lobo vive Valerie (Amanda Seyfried), una joven del pueblo enamorada de un joven huérfano leñador.




TÍTULO ORIGINAL Red Riding Hood
AÑO 2011
DURACIÓN 100 min.
PAÍS [Estados Unidos]
DIRECTOR Catherine Hardwicke
GUIÓN David Johnson
MÚSICA Alex Heffes, Brian Reitzell
FOTOGRAFÍA Mandy Walker
REPARTO Amanda Seyfried, Shiloh Fernandez, Max Irons, Gary Oldman, Julie Christie, Virginia Madsen, Billy Burke, Lukas Haas
PRODUCTORA Appian Way / Warner Bros. Pictures: Productor: Leonardo DiCaprio
WEB OFICIAL Solo los usuarios registrados pueden ver los links de descarga. ¡Registrate ahora, ES GRATIS!
GÉNERO Fantástico. Thriller. Drama | Hombres lobo




Código:
Caperucita Roja Ver. Ext. BDRip 1080p x264 Dual.mkv
Format : Matroska
Format version : Version 2
File size : 8.27 GiB
Duration : 1h 40mn
Overall bit rate : 11.7 Mbps
Encoded date : UTC 2011-08-23 08:30:23
Writing application : mkvmerge v4.9.1 ('Ich will') creado el Jul 11 2011 23:53:15
Writing library : libebml v1.2.1 + libmatroska v1.1.1

Video
ID : 1
Format : AVC
Format/Info : Advanced Video Codec
Format profile : High@L4.1
Format settings, CABAC : Yes
Format settings, ReFrames : 5 frames
Format settings, GOP : M=4, N=59
Codec ID : V_MPEG4/ISO/AVC
Duration : 1h 40mn
Bit rate : 9 388 Kbps
Width : 1 920 pixels
Height : 800 pixels
Display aspect ratio : 2.40:1
Frame rate : 23.976 fps
Color space : YUV
Chroma subsampling : 4:2:0
Bit depth : 8 bits
Scan type : Progressive
Bits/(Pixel*Frame) : 0.255
Stream size : 6.41 GiB (78%)
Writing library : x264 core 115 r1995 c1e60b9
Encoding settings : cabac=1 / ref=5 / deblock=1:0:0 / analyse=0x3:0x133 / me=umh / subme=8 / psy=1 / psy_rd=1.00:0.00 / mixed_ref=1 / me_range=16 / chroma_me=1 / trellis=1 / 8x8dct=1 / cqm=0 / deadzone=21,11 / fast_pskip=1 / chroma_qp_offset=-2 / threads=24 / sliced_threads=0 / nr=0 / decimate=1 / interlaced=0 / bluray_compat=0 / constrained_intra=0 / bframes=3 / b_pyramid=2 / b_adapt=1 / b_bias=0 / direct=1 / weightb=1 / open_gop=0 / weightp=1 / keyint=250 / keyint_min=23 / scenecut=40 / intra_refresh=0 / rc=2pass / mbtree=0 / bitrate=9388 / ratetol=1.0 / qcomp=0.60 / qpmin=0 / qpmax=69 / qpstep=4 / cplxblur=20.0 / qblur=0.5 / ip_ratio=1.40 / pb_ratio=1.30 / aq=1:1.00
Language : English

Audio #1
ID : 2
Format : AC-3
Format/Info : Audio Coding 3
Mode extension : CM (complete main)
Codec ID : A_AC3
Duration : 1h 40mn
Bit rate mode : Constant
Bit rate : 448 Kbps
Channel(s) : 6 channels
Channel positions : Front: L C R, Side: L R, LFE
Sampling rate : 48.0 KHz
Bit depth : 16 bits
Compression mode : Lossy
Stream size : 323 MiB (4%)
Language : Spanish

Audio #2
ID : 3
Format : DTS
Format/Info : Digital Theater Systems
Codec ID : A_DTS
Duration : 1h 40mn
Bit rate mode : Constant
Bit rate : 1 510 Kbps
Channel(s) : 6 channels
Channel positions : Front: L C R, Side: L R, LFE
Sampling rate : 48.0 KHz
Bit depth : 24 bits
Compression mode : Lossy
Stream size : 1.06 GiB (13%)
Title : English
Language : English

Audio #3
ID : 4
Format : AC-3
Format/Info : Audio Coding 3
Mode extension : CM (complete main)
Codec ID : A_AC3
Duration : 1h 40mn
Bit rate mode : Constant
Bit rate : 448 Kbps
Channel(s) : 6 channels
Channel positions : Front: L C R, Side: L R, LFE
Sampling rate : 48.0 KHz
Bit depth : 16 bits
Compression mode : Lossy
Stream size : 323 MiB (4%)
Language : English

Text #1
ID : 5
Format : UTF-8
Codec ID : S_TEXT/UTF8
Codec ID/Info : UTF-8 Plain Text
Title : Forz.
Language : Spanish

Text #2
ID : 6
Format : UTF-8
Codec ID : S_TEXT/UTF8
Codec ID/Info : UTF-8 Plain Text
Language : Spanish

Text #3
ID : 7
Format : UTF-8
Codec ID : S_TEXT/UTF8
Codec ID/Info : UTF-8 Plain Text
Language : English






CUALQUIER PROBLEMA CON LOS LINK MANDADME UN MENSAJE PRIVADO
LO ARREGLARE MAS RAPIDO SI LO DECIS EN EL FORO







LINK 1000 mb INTERCAMBIABLES




Contenido Oculto Este post contiene información oculta, debes contestar el post o hacer click en el botón 'Gracias' para ver el contenido.



Contenido Oculto Este post contiene información oculta, debes contestar el post o hacer click en el botón 'Gracias' para ver el contenido.



Contenido Oculto Este post contiene información oculta, debes contestar el post o hacer click en el botón 'Gracias' para ver el contenido.