Resultados 1 al 2 de 2

Magic Journey to Africa 3D (2010) Anaglyph 1080p BRRip x264 AVCHD


Descargar Magic Journey to Africa 3D (2010) Anaglyph 1080p BRRip x264 AVCHD Gratis 1 link Full Magic Journey to Africa 3D (2010) Anaglyph 1080p BRRip x264 AVCHD por Mediafire con Crack, Serial, KeyGen Full Torrent

  1. abcmpq está desconectado *User Avanzado*
    Fecha de ingreso
    30 abr, 11
    Mensajes
    133

    Magic Journey to Africa 3D (2010) Anaglyph 1080p BRRip x264 AVCHD

    Magic Journey to Africa 3D (2010) Anaglyph 1080p BluRay x264 AVCHD



    SCREENSHOT


    STORYLINE:
    A young girl named Jana takes a magical journey to Africa
    IMDB:
    Código:
    http://www.imdb.com/title/tt1247681/
    INFO:
    Código:
    General
    Complete name                    : Magic Journey To Africa.3D.Anaglyph.mkv
    Format                           : Matroska
    File size                        : 4.18 GiB
    Duration                         : 1h 32mn
    Overall bit rate                 : 6 483 Kbps
    Encoded date                     : UTC 2011-08-14 03:29:34
    Writing application              : mkvmerge v4.0.0 ('The Stars were mine') built on Jun  6 2010 16:18:42
    Writing library                  : libebml v1.0.0 + libmatroska v1.0.0
    
    Video
    ID                               : 1
    Format                           : AVC
    Format/Info                      : Advanced Video Codec
    Format profile                   : Main@L4.0
    Format settings, CABAC           : Yes
    Format settings, ReFrames        : 4 frames
    Codec ID                         : V_MPEG4/ISO/AVC
    Duration                         : 1h 32mn
    Bit rate                         : 5 900 Kbps
    Width                            : 1 920 pixels
    Height                           : 1 080 pixels
    Display aspect ratio             : 16:9
    Frame rate mode                  : Variable
    Frame rate                       : 29.970 fps
    Color space                      : YUV
    Chroma subsampling               : 4:2:0
    Bit depth                        : 8 bits
    Scan type                        : Progressive
    Bits/(Pixel*Frame)               : 0.095
    Stream size                      : 3.69 GiB (88%)
    Writing library                  : x264 core 112
    
    Language                         : English
    Color primaries                  : BT.709-5, BT.1361, IEC 61966-2-4, SMPTE RP177
    Transfer characteristics         : BT.709-5, BT.1361
    Matrix coefficients              : BT.709-5, BT.1361, IEC 61966-2-4 709, SMPTE RP177
    
    Audio
    ID                               : 2
    Format                           : AC-3
    Format/Info                      : Audio Coding 3
    Mode extension                   : CM (complete main)
    Codec ID                         : A_AC3
    Duration                         : 1h 32mn
    Bit rate mode                    : Constant
    Bit rate                         : 640 Kbps
    Channel(s)                       : 6 channels
    Channel positions                : Front: L C R, Side: L R, LFE
    Sampling rate                    : 48.0 KHz
    Bit depth                        : 16 bits
    Compression mode                 : Lossy
    Stream size                      : 423 MiB (10%)
    Language                         : English
    You need red/cyan glasses to be able to view 3D effects



    Works on any computer and any monitor and you can use any player.
    Verry good picture quallity verry good sound quallity and verry good rendering.

    PASSWORD: 3danaglyph.ct
    DOWNLOAD:
    Single Extraction - Interchangeable

    Uploadstation:

    Contenido Oculto Este post contiene información oculta, debes contestar el post o hacer click en el botón 'Gracias' para ver el contenido.



    Filepost:

    Contenido Oculto Este post contiene información oculta, debes contestar el post o hacer click en el botón 'Gracias' para ver el contenido.



    Wupload:

    Contenido Oculto Este post contiene información oculta, debes contestar el post o hacer click en el botón 'Gracias' para ver el contenido.



    Filesonic:

    Contenido Oculto Este post contiene información oculta, debes contestar el post o hacer click en el botón 'Gracias' para ver el contenido.



    I recommend you use JDownloader to resolve any downloading issues
    Código:
    http://www.jdownloader.org/download
    Última edición por abcmpq; 30/10/2011 a las 07:05



  2. abcmpq está desconectado *User Avanzado*
    Fecha de ingreso
    30 abr, 11
    Mensajes
    133

    Re: Magic Journey to Africa 3D (2010) Anaglyph 1080p BRRip x264 AVCHD

    Reuploaded and multihost links added

Temas similares

  1. Jaws 3D (1983) Anaglyph 1080p BRRip x264 AVCHD
    Por abcmpq en el foro Peliculas en HD-DVD, BluRay, HDTV Gratis
    Respuestas: 10
    Último mensaje: 12/05/2013, 14:52
  2. Sea Rex 3D: Journey to a Prehistoric World (2010) Anaglyph 1080p BluRay x264 AVCHD
    Por abcmpq en el foro Peliculas en HD-DVD, BluRay, HDTV Gratis
    Respuestas: 16
    Último mensaje: 28/12/2012, 04:23
  3. Into the Deep 3D (2009) Anaglyph 1080p BRRip x264 AVCHD
    Por abcmpq en el foro Peliculas en HD-DVD, BluRay, HDTV Gratis
    Respuestas: 1
    Último mensaje: 27/11/2012, 18:39
  4. Cane Toads: The Conquest 3D (2010) Anaglyph 1080p BRRip x264 AVCHD
    Por abcmpq en el foro Peliculas en HD-DVD, BluRay, HDTV Gratis
    Respuestas: 2
    Último mensaje: 30/07/2012, 17:22
  5. The Fabric of Time 3D (2010) Anaglyph 1080p BRRip x264 AVCHD
    Por abcmpq en el foro Peliculas en HD-DVD, BluRay, HDTV Gratis
    Respuestas: 1
    Último mensaje: 09/10/2011, 18:52