Resultados 1 al 8 de 8
Like Tree1Likes
  • 1 Post By Cadagoto

Nada Que Declarar 2011 BDRip 1080p Mkv Castellano;AC3/Frances;DTS Comedia


Descargar Nada Que Declarar 2011 BDRip 1080p Mkv Castellano;AC3/Frances;DTS Comedia Gratis 1 link Full Nada Que Declarar 2011 BDRip 1080p Mkv Castellano;AC3/Frances;DTS Comedia por Mediafire con Crack, Serial, KeyGen Full Torrent

  1. Avatar de Cadagoto
    Cadagoto está desconectado *Dios del FORO*
    Fecha de ingreso
    22 sep, 09
    Ubicación
    En El Mejor Lugar De La Web ...La Mía :)
    Mensajes
    4,582

    Nada Que Declarar 2011 BDRip 1080p Mkv Castellano;AC3/Frances;DTS Comedia




    Nada Que Declarar 2011 BDRip 1080p Mkv Castellano;AC3/Frances;DTS Comedia







    Título: Nada que declarar
    Título original: Rien à déclarer
    País: Francia, Bélgica
    Estreno en USA:
    Estreno en España: 08/04/2011
    Lanzamiento en DVD (alquiler): 03/08/2011
    Estreno en Francia: 02/02/2011
    Productora: Pathé, Les Productions du Ch'timi, TF1 Films Production, Scope Pictures
    Director: Danny Boon
    Guión: Danny Boon, Yaël Boon
    Reparto: Benoit Poelvoorde, Dany Boon, Julie Bernard, Karin Viard, François Damiens, Bouli Lanners


    Código:
    Nada Que Declarar BDRip 1080p Dual.mkv
    Format : Matroska
    Format version : Version 2
    File size : 7.99 GiB
    Duration : 1h 48mn
    Overall bit rate : 10.6 Mbps
    Encoded date : UTC 2011-08-02 15:22:26
    Writing application : mkvmerge v4.9.1 ('Ich will') creado el Jul 11 2011 23:53:15
    Writing library : libebml v1.2.1 + libmatroska v1.1.1
    
    Video
    ID : 1
    Format : AVC
    Format/Info : Advanced Video Codec
    Format profile : High@L4.0
    Format settings, CABAC : Yes
    Format settings, ReFrames : 5 frames
    Muxing mode : Header stripping
    Codec ID : V_MPEG4/ISO/AVC
    Duration : 1h 48mn
    Bit rate : 8 602 Kbps
    Width : 1 920 pixels
    Height : 824 pixels
    Display aspect ratio : 2.35:1
    Frame rate : 24.000 fps
    Color space : YUV
    Chroma subsampling : 4:2:0
    Bit depth : 8 bits
    Scan type : Progressive
    Bits/(Pixel*Frame) : 0.227
    Stream size : 6.35 GiB (79%)
    Writing library : x264 core 115 r1995 c1e60b9
    
    
    Audio #1
    ID : 2
    Format : AC-3
    Format/Info : Audio Coding 3
    Mode extension : CM (complete main)
    Muxing mode : Header stripping
    Codec ID : A_AC3
    Duration : 1h 48mn
    Bit rate mode : Constant
    Bit rate : 448 Kbps
    Channel(s) : 6 channels
    Channel positions : Front: L C R, Side: L R, LFE
    Sampling rate : 48.0 KHz
    Bit depth : 16 bits
    Compression mode : Lossy
    Stream size : 347 MiB (4%)
    Language : Spanish
    
    Audio #2
    ID : 3
    Format : DTS
    Format/Info : Digital Theater Systems
    Muxing mode : Header stripping
    Codec ID : A_DTS
    Duration : 1h 48mn
    Bit rate mode : Constant
    Bit rate : 1 510 Kbps
    Channel(s) : 6 channels
    Channel positions : Front: L C R, Side: L R, LFE
    Sampling rate : 48.0 KHz
    Bit depth : 24 bits
    Compression mode : Lossy
    Stream size : 1.14 GiB (14%)
    Title : French DTS 1509kbps
    Language : French
    1 de enero de 1993: fecha de la creación de la Eurozona. Dos agentes de aduanas -un belga y un francés- se enteran de que su puesto en la frontera, situado en los pueblecitos de Courquain, Francia y Koorkin, Bélgica, está a punto de desaparecer. Ruben Vandervoorde (Benoît Poelvoorde) es el agente de aduanas belga y la francofobia es una tradición familiar. Pero ahora se verá obligado a inaugurar la primera brigada móvil mixta franco-belga. Su equivalente francés será Mathias Ducatel (Dany Boon), enemigo de toda la vida de Ruben y que está secretamente enamorado de su hermana. Para sorpresa de todo el mundo, Mathias acepta ser el compañero de Vandevoorde. Juntos peinarán las carreteras rurales fronterizas a bordo de un vehículo especial de las aduanas internacionales: un Renault 4L a punto de estirar la pata.










    Contenido Oculto Este post contiene información oculta, debes contestar el post o hacer click en el botón 'Gracias' para ver el contenido.





    .
    Si Los Links No Estan On-Line,avisame Asi Tratare De Reponerlos!

    Aportar Toma Buen Tiempo,Resubir Mucho Mas ,Agradecer No Cuesta Nada !






    alexdas2001 likes this.
    CadagotoHD.Com
    Visita Mi Blog Con Mis Aportes (Firma Permitida Por Admin Warez)



  2. almaes está desconectado *Novato reciente*
    Fecha de ingreso
    28 abr, 09
    Mensajes
    15

    Re: Nada Que Declarar 2011 BDRip 1080p Mkv Castellano;AC3/Frances;DTS Comedia

    muchas gracias

  3. visigrado está desconectado *Novato reciente*
    Fecha de ingreso
    17 ene, 11
    Mensajes
    15

    Re: Nada Que Declarar 2011 BDRip 1080p Mkv Castellano;AC3/Frances;DTS Comedia

    Espero pasarlo bien. Muchas gracias.

  4. theruli está desconectado *Novato reciente*
    Fecha de ingreso
    18 dic, 11
    Mensajes
    6

    Re: Nada Que Declarar 2011 BDRip 1080p Mkv Castellano;AC3/Frances;DTS Comedia

    gracias vamos a verla como esta, saludos!.

    Cita Iniciado por Cadagoto Ver mensaje




    Nada Que Declarar 2011 BDRip 1080p Mkv Castellano;AC3/Frances;DTS Comedia







    Título: Nada que declarar
    Título original: Rien à déclarer
    País: Francia, Bélgica
    Estreno en USA:
    Estreno en España: 08/04/2011
    Lanzamiento en DVD (alquiler): 03/08/2011
    Estreno en Francia: 02/02/2011
    Productora: Pathé, Les Productions du Ch'timi, TF1 Films Production, Scope Pictures
    Director: Danny Boon
    Guión: Danny Boon, Yaël Boon
    Reparto: Benoit Poelvoorde, Dany Boon, Julie Bernard, Karin Viard, François Damiens, Bouli Lanners


    Código:
    Nada Que Declarar BDRip 1080p Dual.mkv
    Format : Matroska
    Format version : Version 2
    File size : 7.99 GiB
    Duration : 1h 48mn
    Overall bit rate : 10.6 Mbps
    Encoded date : UTC 2011-08-02 15:22:26
    Writing application : mkvmerge v4.9.1 ('Ich will') creado el Jul 11 2011 23:53:15
    Writing library : libebml v1.2.1 + libmatroska v1.1.1
    
    Video
    ID : 1
    Format : AVC
    Format/Info : Advanced Video Codec
    Format profile : High@L4.0
    Format settings, CABAC : Yes
    Format settings, ReFrames : 5 frames
    Muxing mode : Header stripping
    Codec ID : V_MPEG4/ISO/AVC
    Duration : 1h 48mn
    Bit rate : 8 602 Kbps
    Width : 1 920 pixels
    Height : 824 pixels
    Display aspect ratio : 2.35:1
    Frame rate : 24.000 fps
    Color space : YUV
    Chroma subsampling : 4:2:0
    Bit depth : 8 bits
    Scan type : Progressive
    Bits/(Pixel*Frame) : 0.227
    Stream size : 6.35 GiB (79%)
    Writing library : x264 core 115 r1995 c1e60b9
    
    
    Audio #1
    ID : 2
    Format : AC-3
    Format/Info : Audio Coding 3
    Mode extension : CM (complete main)
    Muxing mode : Header stripping
    Codec ID : A_AC3
    Duration : 1h 48mn
    Bit rate mode : Constant
    Bit rate : 448 Kbps
    Channel(s) : 6 channels
    Channel positions : Front: L C R, Side: L R, LFE
    Sampling rate : 48.0 KHz
    Bit depth : 16 bits
    Compression mode : Lossy
    Stream size : 347 MiB (4%)
    Language : Spanish
    
    Audio #2
    ID : 3
    Format : DTS
    Format/Info : Digital Theater Systems
    Muxing mode : Header stripping
    Codec ID : A_DTS
    Duration : 1h 48mn
    Bit rate mode : Constant
    Bit rate : 1 510 Kbps
    Channel(s) : 6 channels
    Channel positions : Front: L C R, Side: L R, LFE
    Sampling rate : 48.0 KHz
    Bit depth : 24 bits
    Compression mode : Lossy
    Stream size : 1.14 GiB (14%)
    Title : French DTS 1509kbps
    Language : French
    1 de enero de 1993: fecha de la creación de la Eurozona. Dos agentes de aduanas -un belga y un francés- se enteran de que su puesto en la frontera, situado en los pueblecitos de Courquain, Francia y Koorkin, Bélgica, está a punto de desaparecer. Ruben Vandervoorde (Benoît Poelvoorde) es el agente de aduanas belga y la francofobia es una tradición familiar. Pero ahora se verá obligado a inaugurar la primera brigada móvil mixta franco-belga. Su equivalente francés será Mathias Ducatel (Dany Boon), enemigo de toda la vida de Ruben y que está secretamente enamorado de su hermana. Para sorpresa de todo el mundo, Mathias acepta ser el compañero de Vandevoorde. Juntos peinarán las carreteras rurales fronterizas a bordo de un vehículo especial de las aduanas internacionales: un Renault 4L a punto de estirar la pata.










    hidden content may not be quoted




    .
    Si Los Links No Estan On-Line,avisame Asi Tratare De Reponerlos!

    Aportar Toma Buen Tiempo,Resubir Mucho Mas ,Agradecer No Cuesta Nada !







  5. pesadillaaa3 está desconectado *Novato reciente*
    Fecha de ingreso
    26 nov, 09
    Mensajes
    18

    Re: Nada Que Declarar 2011 BDRip 1080p Mkv Castellano;AC3/Frances;DTS Comedia

    graciassssssssss

  6. bertu1981 está desconectado *User Avanzado*
    Fecha de ingreso
    05 nov, 11
    Mensajes
    100

    Re: Nada Que Declarar 2011 BDRip 1080p Mkv Castellano;AC3/Frances;DTS Comedia

    graciassssssssss

  7. Dism está desconectado *User Avanzado*
    Fecha de ingreso
    22 mar, 10
    Mensajes
    137

    Re: Nada Que Declarar 2011 BDRip 1080p Mkv Castellano;AC3/Frances;DTS Comedia

    Graciassssssssssssssssssssssssssssssssssssssssssss sssssssssssssss

  8. alexdas2001 está desconectado *Novato reciente*
    Fecha de ingreso
    04 feb, 10
    Mensajes
    7

    Re: Nada Que Declarar 2011 BDRip 1080p Mkv Castellano;AC3/Frances;DTS Comedia

    Muy bueno gracias

Temas similares

  1. Nada Que Declarar [Cast/Fra AC3,DTS][HD 1080p][Comedia][2011][WU,FS,US,X7]
    Por 19miguel84 en el foro Peliculas en HD-DVD, BluRay, HDTV Gratis
    Respuestas: 7
    Último mensaje: 01/12/2012, 09:59
  2. Nada Que Declarar [2011] [BDRip 720p] [Castellano] [Comedia]
    Por prdidou en el foro Moviez Peliculas
    Respuestas: 2
    Último mensaje: 07/06/2011, 04:34
  3. Nada Que Declarar [2011] [BDRip 720p] [Castellano MIC] [Comedia]
    Por lalopayan75 en el foro Peliculas en HD-DVD, BluRay, HDTV Gratis
    Respuestas: 0
    Último mensaje: 06/06/2011, 05:38
  4. Nada que declarar[DVDScreener][Comedia][Castellano][2011]
    Por Titanium en el foro Peliculas DVD Screener Gratis
    Respuestas: 0
    Último mensaje: 01/06/2011, 22:01
  5. Nada que declarar[Castellano][TS-HQ][Comedia][2011]
    Por ErLuiSS en el foro Moviez Peliculas
    Respuestas: 1
    Último mensaje: 06/05/2011, 15:28