Regreso A La Casa De Haunted Hill 2008 BDRemux 1080p MKV Castellano/Ingles;AC3 Sub:Esp








TITULO ORIGINAL Return to House on Haunted Hill
AÑO 2008
PAISImagen
DURACIÓN 81 Minutos
DIRECTOR Víctor García
GUIÓN William Massa
MUSICA Frederik Wiedmann
FOTOGRAFIA Lorenzo Senatore
REPARTO Amanda Righetti, Cerina Vincent, Erik Palladino, Tom Riley, Andrew Lee Potts, Jeffrey Combs, Steven Pacey, Calita Rainford, Gil Kolirin, Andrew Pleavin, Chucky Venice, Tatina de Marinis, George Zlatarev, Stilyana Mitkova, Laia Gonzàlez
PRODUCTORA Dark Castle Entertainment
PREMIOS
GENERO Terror. Thriller | Secuela




Código:
Regreso a la casa de Haunted Hill BDRemux 1080p.Castellano.CadagotoHD.mkv
Format : Matroska
File size : 10.9 GiB
Duration : 1h 21mn
Overall bit rate : 19.1 Mbps
Encoded date : UTC 2011-07-21 21:00:03
Writing application : mkvmerge v4.5.0 ('Speed of Light') creado el Feb 1 2011 02:10:32
Writing library : libebml v1.2.0 + libmatroska v1.1.0

Video
ID : 1
Format : VC-1
Format profile : AP@L3
Codec ID : WVC1
Codec ID/Hint : Microsoft
Duration : 1h 21mn
Bit rate : 17.5 Mbps
Width : 1 920 pixels
Height : 1 080 pixels
Display aspect ratio : 16:9
Frame rate : 23.976 fps
Chroma subsampling : 4:2:0
Bit depth : 8 bits
Scan type : Progressive
Compression mode : Lossy
Bits/(Pixel*Frame) : 0.352
Stream size : 9.92 GiB (91%)
Language : English
Subido  Por  cadagotoHD
Audio #1
ID : 2
Format : AC-3
Format/Info : Audio Coding 3
Mode extension : CM (complete main)
Codec ID : A_AC3
Duration : 1h 21mn
Bit rate mode : Constant
Bit rate : 640 Kbps
Channel(s) : 6 channels
Channel positions : Front: L C R, Side: L R, LFE
Sampling rate : 48.0 KHz
Bit depth : 16 bits
Compression mode : Lossy
Delay relative to video : 13s 900ms
Stream size : 372 MiB (3%)
Title : Castellano
Language : Spanish

Audio #2
ID : 3
Format : AC-3
Format/Info : Audio Coding 3
Mode extension : CM (complete main)
Codec ID : A_AC3
Duration : 1h 21mn
Bit rate mode : Constant
Bit rate : 640 Kbps
Channel(s) : 6 channels
Channel positions : Front: L C R, Side: L R, LFE
Sampling rate : 48.0 KHz
Bit depth : 16 bits
Compression mode : Lossy
Stream size : 372 MiB (3%)
Title : Ingles
Language : English

Text #1
ID : 4
Format : UTF-8
Codec ID : S_TEXT/UTF8
Codec ID/Info : UTF-8 Plain Text
Title : Subs Englsh
Language : English

Text #2
ID : 5
Format : UTF-8
Codec ID : S_TEXT/UTF8
Codec ID/Info : UTF-8 Plain Text
Title : Subs Castellano
Language

Sarah Wolfe es la única superviviente de la masacre en la Mansión Vanacutt. Nadie cree en la versión de Sarah que hace responsable de los espeluznantes asesinatos a los espíritus malignos que poseen la casa. Pero su reciente y cuestionable suicidio deja a su hermana Ariel sin otra opción que encontrar quien o qué ha sido su asesino o responsable de conducirla a la locura. Ariel descubre que Sarah le envió el diario del sádico Doctor Vanacutt justo antes de morir, lo que la convierte en el principal objetivo del asesino encabezando un grupo de nuevas víctimas que regresan a la Mansión Vanacutt.









Contenido Oculto Este post contiene información oculta, debes contestar el post o hacer click en el botón 'Gracias' para ver el contenido.








.
Si Los Links No Estan On-Line,avisame Asi Tratare De Reponerlos!

Aportar Toma Buen Tiempo,Resubir Mucho Mas ,Agradecer No Cuesta Nada !