Resultados 1 al 3 de 3

Mars Needs Moms (2011) [720p BRRip] [Dual Español Latino-Inglés]


Descargar Mars Needs Moms (2011) [720p BRRip] [Dual Español Latino-Inglés] Gratis 1 link Full Mars Needs Moms (2011) [720p BRRip] [Dual Español Latino-Inglés] por Mediafire con Crack, Serial, KeyGen Full Torrent

  1. michel_vai está desconectado *Dios del FORO*
    Fecha de ingreso
    07 ene, 09
    Mensajes
    2,109

    Mars Needs Moms (2011) [720p BRRip] [Dual Español Latino-Inglés]








    El film trata sobre un niño, fanático del legendario grupo musical Kiss, que es muy desobediente con su madre, pero una noche, un grupo de marcianos la secuestran y se la llevan a Marte. El niño tendrá que embarcarse en la aventura en su búsqueda para rescatarla. Una vez que llegue al “planeta Rojo” ocurrirá graves consecuencias. Inicialmente estaba prevista para que la dirigiese Robert Zemeckis, aunque finalmente será Simon Wells quien la lleve a cabo, utilizando la misma técnica de captura de movimientos de films como “Polar Express” o “Beowulf”.





    TÍTULO ORIGINAL: Mars Needs Moms!
    OTROS TÍTULOS: Marte Necesita Madres / Marte Necesita Mamás
    AÑO: 2011
    DURACIÓN: 88 min.
    PAÍS: USA
    DIRECTOR: Simon Wells
    GUIÓN: Simon Wells, Wendy Wells (Libro: Berkeley Breathed)
    MÚSICA: John Powell
    FOTOGRAFÍA: Robert Presley
    REPARTO: Animation
    PRODUCTORA: Walt Disney Productions / ImageMovers
    GÉNERO: Animación. Ciencia ficción. Aventuras | Aventura espacial. Extraterrestres. Cine familiar. 3-D







    BRRip 720p | XviD | AC3 5.1 | 2.97 GB | Audios: Español Latino, Inglés | Subtítulos: Español | Animación | 2011

    Video
    ID : 0
    Format : MPEG-4 Visual
    Format profile : Advanced Simple@L5
    Format settings, BVOP : 2
    Format settings, QPel : No
    Format settings, GMC : No warppoints
    Format settings, Matrix : Default (MPEG)
    Codec ID : XVID
    Codec ID/Hint : XviD
    Duration : 1h 28mn
    Bit rate : 3 800 Kbps
    Width : 1 264 pixels
    Height : 528 pixels
    Display aspect ratio : 2.35:1
    Frame rate : 23.976 fps
    Color space : YUV
    Chroma subsampling : 4:2:0
    Bit depth : 8 bits
    Scan type : Progressive
    Compression mode : Lossy
    Bits/(Pixel*Frame) : 0.237
    Stream size : 2.34 GiB (79%)
    Writing library : XviD 1.2.1 (UTC 2008-12-04)

    Audio #1
    ID : 1
    Format : AC-3
    Format/Info : Audio Coding 3
    Mode extension : CM (complete main)
    Codec ID : 2000
    Duration : 1h 28mn
    Bit rate mode : Constant
    Bit rate : 384 Kbps
    Channel(s) : 6 channels
    Channel positions : Front: L C R, Side: L R, LFE
    Sampling rate : 48.0 KHz
    Bit depth : 16 bits
    Compression mode : Lossy
    Stream size : 242 MiB (8%)
    Alignment : Split accross interleaves
    Interleave, duration : 42 ms (1.00 video frame)
    Interleave, preload duration : 500 ms

    Audio #2
    ID : 2
    Format : AC-3
    Format/Info : Audio Coding 3
    Mode extension : CM (complete main)
    Codec ID : 2000
    Duration : 1h 28mn
    Bit rate mode : Constant
    Bit rate : 640 Kbps
    Channel(s) : 6 channels
    Channel positions : Front: L C R, Side: L R, LFE
    Sampling rate : 48.0 KHz
    Bit depth : 16 bits
    Compression mode : Lossy
    Stream size : 403 MiB (13%)
    Alignment : Split accross interleaves
    Interleave, duration : 42 ms (1.00 video frame)
    Interleave, preload duration : 500 ms















    Contenido Oculto Este post contiene información oculta, debes contestar el post o hacer click en el botón 'Gracias' para ver el contenido.




  2. buclesraros está desconectado *Novato reciente*
    Fecha de ingreso
    30 nov, 09
    Mensajes
    19

    Re: Mars Needs Moms (2011) [720p BRRip] [Dual Español Latino-Inglés]

    gracias gracias

  3. joseyeri00 está desconectado *Novato Avanzado*
    Fecha de ingreso
    23 abr, 09
    Mensajes
    35

    Re: Mars Needs Moms (2011) [720p BRRip] [Dual Español Latino-Inglés]

    muchas gracias!!!

Temas similares

  1. Just Go with It (2011) 720p BRRip Dual Español Latino-Ingles
    Por jul_leod en el foro Peliculas en HD-DVD, BluRay, HDTV Gratis
    Respuestas: 2
    Último mensaje: 04/05/2012, 09:27
  2. Mars Need Moms (2011)[DVD-R1/NTSC][LATINO/INGLES][DVD-FINAL]
    Por goanzaloo en el foro Peliculas en HD-DVD, BluRay, HDTV Gratis
    Respuestas: 1
    Último mensaje: 07/02/2012, 23:49
  3. Mars Needs Moms (2011) 720p BRRip [Dual Español Latino-Inglés]
    Por resayam en el foro Peliculas en HD-DVD, BluRay, HDTV Gratis
    Respuestas: 2
    Último mensaje: 19/08/2011, 12:21
  4. Mars Needs Moms (2011) 720p BRRip Dual Español Latino-Inglés
    Por EscorpionENS en el foro Peliculas en HD-DVD, BluRay, HDTV Gratis
    Respuestas: 2
    Último mensaje: 22/07/2011, 11:16
  5. Mars Needs Moms 2011 BRRIP 720p MKV ARNT
    Por decter en el foro Moviez Peliculas
    Respuestas: 0
    Último mensaje: 18/07/2011, 20:07

Etiquetas para este tema