Resultados 1 al 5 de 5
Like Tree1Likes
  • 1 Post By XtorquemaX

Gnomeo y Julieta(2011)[Animación][Bdrip.m-720p.x264.mkv][Ac3(Esp)Dts(Eng);(Subs)]


Descargar Gnomeo y Julieta(2011)[Animación][Bdrip.m-720p.x264.mkv][Ac3(Esp)Dts(Eng);(Subs)] Gratis 1 link Full Gnomeo y Julieta(2011)[Animación][Bdrip.m-720p.x264.mkv][Ac3(Esp)Dts(Eng);(Subs)] por Mediafire con Crack, Serial, KeyGen Full Torrent

  1. Avatar de XtorquemaX
    XtorquemaX está desconectado *Novato Avanzado*
    Fecha de ingreso
    10 jun, 11
    Mensajes
    72

    Gnomeo y Julieta(2011)[Animación][Bdrip.m-720p.x264.mkv][Ac3(Esp)Dts(Eng);(Subs)]






    Solo los usuarios registrados pueden ver los links de descarga. ¡Registrate ahora, ES GRATIS!

    Título Original: Gnomeo and Juliet
    Año: 2011
    Duración: 84 min.
    País:
    Director: Kelly Asbury
    Reparto: Animation
    Productora: Coproducción USA-GB; Walt Disney Pictures / Rocket Pictures / Starz Animation
    Género: Animación. Fantástico. Infantil. Romance | 3-D

    Sinopsis: La obra de Shakespeare experimenta una transformación disparatada: la gran historia de amor es protagonizada por enanos de jardín. Gnomeo y Juliet, al igual que sus cuasi homónimos, tienen que superar un sinfín de obstáculos, pero en este caso no se deben al odio que enfrenta a sus familias, sino a una disputa entre vecinos. ¿Podrá este pareja vivir feliz para siempre entre flamencos rosas de plástico y demenciales carreras de cortadoras de césped?. Los dos enanos intentarán que su destino fatal no se cumpla. Lucharán para que su historia de amor tenga un final feliz. Cuenta con canciones clásicas y también originales de Elton John.



    Fuente: Bdrip
    Resolucion: 1280x693
    Pista de Video: AVC @ 14Mbps
    Pista de Audio Castellano: Ac3 @ 640Kbps
    Pista de Audio Inglés: Dts @ 1510Kbps
    Subtitulos: Castellano(Forzados y Completos) & Inglés
    Tamaño: 2,87 GiB



    Código:
    General
    Unique ID                        : 230600366992356982598434931486862212150 (0xAD7C03E3FF8AD53D8E64DFBD6965FC36)
    Complete name                    : E:\Gnomeo.y.Julieta.m-720p.Montaje.Echo.X.XtorqueX.mkv
    Format                           : Matroska
    File size                        : 2.87 GiB
    Duration                         : 1h 23mn
    Overall bit rate                 : 4 906 Kbps
    Encoded date                     : UTC 2011-06-30 17:31:38
    Writing application              : mkvmerge v4.7.0 ('Just Like You Imagined') creado el Apr 21 2011 01:13:14
    Writing library                  : libebml v1.2.0 + libmatroska v1.1.0
    
    Video
    ID                               : 1
    Format                           : AVC
    Format/Info                      : Advanced Video Codec
    Format profile                   : Main@L3.1
    Format settings, CABAC           : Yes
    Format settings, ReFrames        : 4 frames
    Format settings, GOP             : M=3, N=32
    Muxing mode                      : Header stripping
    Codec ID                         : V_MPEG4/ISO/AVC
    Duration                         : 1h 23mn
    Bit rate                         : 2 754 Kbps
    Width                            : 1 280 pixels
    Height                           : 688 pixels
    Display aspect ratio             : 16:9
    Frame rate mode                  : Variable
    Frame rate                       : 23.976 fps
    Color space                      : YUV
    Chroma subsampling               : 4:2:0
    Bit depth                        : 8 bits
    Scan type                        : Progressive
    Bits/(Pixel*Frame)               : 0.130
    Stream size                      : 1.56 GiB (54%)
    Writing library                  : x264 core 112
    Encoding settings                : cabac=1 / ref=2 / deblock=1:0:0 / analyse=0x1:0x111 / me=hex / subme=6 / psy=1 / psy_rd=1.00:0.00 / mixed_ref=0 / me_range=16 / chroma_me=1 / trellis=0 / 8x8dct=0 / cqm=0 / deadzone=21,11 / fast_pskip=1 / chroma_qp_offset=-2 / threads=12 / sliced_threads=0 / nr=0 / decimate=1 / interlaced=0 / constrained_intra=0 / bframes=2 / b_pyramid=2 / b_adapt=1 / b_bias=0 / direct=1 / weightb=0 / open_gop=0 / weightp=2 / keyint=240 / keyint_min=23 / scenecut=40 / intra_refresh=0 / rc_lookahead=40 / rc=abr / mbtree=1 / bitrate=2754 / ratetol=1.0 / qcomp=0.60 / qpmin=3 / qpmax=51 / qpstep=4 / ip_ratio=1.40 / aq=1:1.00
    Language                         : Spanish
    Color primaries                  : BT.709-5, BT.1361, IEC 61966-2-4, SMPTE RP177
    Transfer characteristics         : BT.709-5, BT.1361
    Matrix coefficients              : BT.709-5, BT.1361, IEC 61966-2-4 709, SMPTE RP177
    
    Audio #1
    ID                               : 2
    Format                           : AC-3
    Format/Info                      : Audio Coding 3
    Mode extension                   : CM (complete main)
    Muxing mode                      : Header stripping
    Codec ID                         : A_AC3
    Duration                         : 1h 23mn
    Bit rate mode                    : Constant
    Bit rate                         : 640 Kbps
    Channel(s)                       : 6 channels
    Channel positions                : Front: L C R, Side: L R, LFE
    Sampling rate                    : 48.0 KHz
    Bit depth                        : 16 bits
    Compression mode                 : Lossy
    Stream size                      : 384 MiB (13%)
    Language                         : Spanish
    
    Audio #2
    ID                               : 3
    Format                           : DTS
    Format/Info                      : Digital Theater Systems
    Muxing mode                      : Header stripping
    Codec ID                         : A_DTS
    Duration                         : 1h 23mn
    Bit rate mode                    : Constant
    Bit rate                         : 1 510 Kbps
    Channel(s)                       : 6 channels
    Channel positions                : Front: L C R, Side: L R, LFE
    Sampling rate                    : 48.0 KHz
    Bit depth                        : 24 bits
    Compression mode                 : Lossy
    Stream size                      : 905 MiB (31%)
    Language                         : English
    
    Text #1
    ID                               : 4
    Format                           : UTF-8
    Codec ID                         : S_TEXT/UTF8
    Codec ID/Info                    : UTF-8 Plain Text
    Language                         : Spanish
    
    Text #2
    ID                               : 5
    Format                           : UTF-8
    Codec ID                         : S_TEXT/UTF8
    Codec ID/Info                    : UTF-8 Plain Text
    Language                         : Spanish
    
    Text #3
    ID                               : 6
    Format                           : UTF-8
    Codec ID                         : S_TEXT/UTF8
    Codec ID/Info                    : UTF-8 Plain Text
    Language                         : English
    
    Menu
    00:00:00.000                     : en:Chapter 1
    00:09:45.001                     : en:Chapter 2
    00:16:46.672                     : en:Chapter 3
    00:21:28.370                     : en:Chapter 4
    00:29:00.280                     : en:Chapter 5
    00:35:19.326                     : en:Chapter 6
    00:41:18.393                     : en:Chapter 7
    00:50:42.623                     : en:Chapter 8
    00:58:31.174                     : en:Chapter 9
    01:05:51.531                     : en:Chapter 10
    01:11:14.312                     : en:Chapter 11
    01:17:09.291                     : en:Chapter 12


    Solo los usuarios registrados pueden ver los links de descarga. ¡Registrate ahora, ES GRATIS! Solo los usuarios registrados pueden ver los links de descarga. ¡Registrate ahora, ES GRATIS! Solo los usuarios registrados pueden ver los links de descarga. ¡Registrate ahora, ES GRATIS!
    Solo los usuarios registrados pueden ver los links de descarga. ¡Registrate ahora, ES GRATIS! Solo los usuarios registrados pueden ver los links de descarga. ¡Registrate ahora, ES GRATIS! Solo los usuarios registrados pueden ver los links de descarga. ¡Registrate ahora, ES GRATIS!





    Enlaces De 750 MiB

    Contenido Oculto Este post contiene información oculta, debes contestar el post o hacer click en el botón 'Gracias' para ver el contenido.


    Estado De La Subida: Fileserve (Completo), Wupload (Completo), Uploaded (Completo).

    Nota: Pincha En El Botón De Click And Load y Luego Pincha En El Host Que Quieras.

    PD: Dar Al Botón Gracias Solo Tardas 2 Seg, En Comparación Con Mis Ripeos Que Llevan Casi 4 Horas.
    Última edición por XtorquemaX; 01/07/2011 a las 19:00
    reyinfernus likes this.


    Código:
    Tutorial para bajar de linksave.
    
    1º. Copiar el link y cargarlo al JD.
    2º. Dale a descargar.
    3º. Verla y disfrutarla.
    4º. Agradecer el aporte.



  2. groales está desconectado *Novato reciente*
    Fecha de ingreso
    02 jul, 11
    Mensajes
    1

    Re: Gnomeo y Julieta(2011)[Animación][Bdrip.m-720p.x264.mkv][Ac3(Esp)Dts(Eng);(Subs)]

    gracias por el aporte

  3. likinchan está desconectado *User Avanzado*
    Fecha de ingreso
    05 nov, 09
    Mensajes
    164

    Re: Gnomeo y Julieta(2011)[Animación][Bdrip.m-720p.x264.mkv][Ac3(Esp)Dts(Eng);(Subs)]

    graciassss

  4. joram1 está desconectado *Novato reciente*
    Fecha de ingreso
    21 jun, 09
    Mensajes
    20

    Re: Gnomeo y Julieta(2011)[Animación][Bdrip.m-720p.x264.mkv][Ac3(Esp)Dts(Eng);(Subs)]

    thaanksssss

  5. reyinfernus está desconectado *Novato Avanzado*
    Fecha de ingreso
    20 abr, 10
    Mensajes
    74

    Re: Gnomeo y Julieta(2011)[Animación][Bdrip.m-720p.x264.mkv][Ac3(Esp)Dts(Eng);(Subs)]

    gracias por el aporte bajando

Temas similares

  1. Tiana y el Sapo [2009][BDRip 720p x264][Animacion][AC3(es.ES);DTS(en.US)][Subs]
    Por LeGeNN en el foro Peliculas en HD-DVD, BluRay, HDTV Gratis
    Respuestas: 15
    Último mensaje: 09/07/2013, 11:47
  2. Gnomeo Y Julieta 2011 BluRay 720p Audio Español Latino 5.1/Ingles 5.1 Animacion
    Por Cadagoto en el foro Peliculas en HD-DVD, BluRay, HDTV Gratis
    Respuestas: 7
    Último mensaje: 15/08/2012, 08:58
  3. Gnomeo y Julieta (2011)[BRRip 720p][Audios AC3 5.1 Latino, Inglés subs esp]
    Por glad31 en el foro Peliculas en HD-DVD, BluRay, HDTV Gratis
    Respuestas: 3
    Último mensaje: 21/05/2011, 01:36
  4. Gnomeo y Julieta (2011)(TS-HQ)[Animacion][Latino]
    Por easy1980 en el foro Moviez Peliculas
    Respuestas: 7
    Último mensaje: 18/05/2011, 23:42
  5. Gnomeo Y Julieta[TS-scr][Esp][Animacion][2011]
    Por chekos2020 en el foro Peliculas DVDRip en Castellano
    Respuestas: 2
    Último mensaje: 23/03/2011, 17:10