Resultados 1 al 8 de 8

Battle: Los Angeles (Battle L.A.) BluRay 720p Mkv Ingles Dts Sub Español Accion


Descargar Battle: Los Angeles (Battle L.A.) BluRay 720p Mkv Ingles Dts Sub Español Accion Gratis 1 link Full Battle: Los Angeles (Battle L.A.) BluRay 720p Mkv Ingles Dts Sub Español Accion por Mediafire con Crack, Serial, KeyGen Full Torrent

  1. Avatar de Cadagoto
    Cadagoto está desconectado *Dios del FORO*
    Fecha de ingreso
    22 sep, 09
    Ubicación
    En El Mejor Lugar De La Web ...La Mía :)
    Mensajes
    4,582

    Battle: Los Angeles (Battle L.A.) BluRay 720p Mkv Ingles Dts Sub Español Accion







    -Battle: Los Angeles (Battle L.A.) BluRay 720p Mkv Ingles Dts Sub Español Accion











    -TÍTULO ORIGINAL: Battle: Los Angeles (Battle L.A.)
    AÑO: 2011
    DURACIÓN: 116 min.
    PAÍS: Estados Unidos
    DIRECTOR: Jonathan Liebesman
    GUIÓN: Scott Silver, Christopher Bertolini
    MÚSICA: Brian Tyler
    FOTOGRAFÍA: Lukas Ettlin
    REPARTO: Aaron Eckhart, Michelle Rodriguez, Bridget Moynahan, Michael Peña, Ne-Yo, Ramon Rodriguez, Taylor Handley, Cory Hardrict, Jadin Gould, Bryce Cass, Joey King
    PRODUCTORA: Columbia Pictures / Original Film
    WEB OFICIAL battlela.com
    GÉNERO: Ciencia ficción. Acción | Extraterrestres



    Código:
    General
    Complete name :     files/Invasion.Tierra.720p.CadagotoHD.mkv
    Format :     Matroska
    File size :     5.45 GiB
    Duration :     1h 56mn
    Overall bit rate :     6 719 Kbps
    Encoded date :     UTC 2011-05-16 05:00:44
    Writing application :     mkvmerge v4.7.0 ('Just Like You Imagined') built on Apr 21 2011 01:13:14
    Writing library :     libebml v1.2.0 + libmatroska v1.1.0
    
    Video
    ID :     1
    Format :     AVC
    Format/Info :     Advanced Video Codec
    Format profile :     High@L4.1
    Format settings, CABAC :     Yes
    Format settings, ReFrames :     5 frames
    Muxing mode :     Container profile=Unknown@4.1
    Codec ID :     V_MPEG4/ISO/AVC
    Duration :     1h 56mn
    Bit rate :     5 213 Kbps
    Width :     1 280 pixels
    Height :     536 pixels
    Display aspect ratio :     2.35:1
    Frame rate :     23.976 fps
    Color space :     YUV
    Chroma subsampling :     4:2:0
    Bit depth :     8 bits
    Scan type :     Progressive
    Bits/(Pixel*Frame) :     0.317
    Stream size :     4.12 GiB (76%)
    Writing library :     x264 core 115 r1995 c1e60b9
    
    
    Audio
    ID :     2
    Format :     DTS
    Format/Info :     Digital Theater Systems
    Codec ID :     A_DTS
    Duration :     1h 56mn
    Bit rate mode :     Constant
    Bit rate :     1 510 Kbps
    Channel(s) :     6 channels
    Channel positions :     Front: L C R, Side: L R, LFE
    Sampling rate :     48.0 KHz
    Bit depth :     16 bits
    Video delay :     11ms
    Stream size :     1.23 GiB (22%)
    
    Sub Españo Latino : Srt
    -Un sargento (Aaron Eckhart) patrulla con sus hombres por las calles de Los Ángeles. En la noche del 24 al 25 de febrero de 1942, cuando en Estados Unidos se vivía en estado de alerta tras el bombardeo de Pearl Harbor, el sonido de las sirenas que anunciaban una incursión aérea despertó a la población. La brigada costera de artillería respondió al ataque disparando contra las naves que sobrevolaban Santa Mónica, que, sorprendentemente, no sufrieron ningún daño. Aunque este hecho nunca se ha explicado oficialmente, existen, al parecer, documentos gubernamentales que registran las discrepancias entre distintos expertos militares sobre lo ocurrido.
















    Contenido Oculto Este post contiene información oculta, debes contestar el post o hacer click en el botón 'Gracias' para ver el contenido.






    .
    Si Los Links No Estan On-Line,avisame Asi Tratare De Reponerlos!

    Aportar Toma Buen Tiempo,Resubir Mucho Mas ,Agradecer No Cuesta Nada !






    CadagotoHD.Com
    Visita Mi Blog Con Mis Aportes (Firma Permitida Por Admin Warez)



  2. luchoalberto12 está desconectado *User Avanzado*
    Fecha de ingreso
    30 may, 10
    Mensajes
    113

    Re: Battle: Los Angeles (Battle L.A.) BluRay 720p Mkv Ingles Dts Sub Español Accion

    graciasss!!!

  3. tuyty2089 está desconectado *Novato Avanzado*
    Fecha de ingreso
    11 oct, 09
    Mensajes
    33

    Re: Battle: Los Angeles (Battle L.A.) BluRay 720p Mkv Ingles Dts Sub Español Accion

    graciassssssssssss

  4. Fabikim está desconectado *Novato Avanzado*
    Fecha de ingreso
    25 may, 11
    Mensajes
    70

    Re: Battle: Los Angeles (Battle L.A.) BluRay 720p Mkv Ingles Dts Sub Español Accion

    muchas gracias!..

  5. wgmorenoh está en línea *Experto*
    Fecha de ingreso
    01 sep, 08
    Mensajes
    357

    Re: Battle: Los Angeles (Battle L.A.) BluRay 720p Mkv Ingles Dts Sub Español Accion

    Gracias, la estaba esperando.

  6. santiago. está desconectado *Novato reciente*
    Fecha de ingreso
    04 jul, 08
    Mensajes
    14

    Re: Battle: Los Angeles (Battle L.A.) BluRay 720p Mkv Ingles Dts Sub Español Accion

    gracias...

  7. malditobarba está desconectado *Novato reciente*
    Fecha de ingreso
    11 jun, 11
    Mensajes
    6

    Re: Battle: Los Angeles (Battle L.A.) BluRay 720p Mkv Ingles Dts Sub Español Accion

    Gracias loco, te pasaste

  8. JABI74 está desconectado *Novato Avanzado*
    Fecha de ingreso
    26 ene, 12
    Mensajes
    59

    Re: Battle: Los Angeles (Battle L.A.) BluRay 720p Mkv Ingles Dts Sub Español Accion

    graciassssssssssssssssss

Temas similares

  1. Battle Los Angeles 2011 720p [Ingles +Sub Español]
    Por Njord10 en el foro Peliculas en HD-DVD, BluRay, HDTV Gratis
    Respuestas: 8
    Último mensaje: 31/07/2012, 13:23
  2. Battle los Angeles [2011] [DVDRip] [Ingles. Sub Español][Accion]
    Por kronos063 en el foro Peliculas DVDRip Subtituladas Gratis
    Respuestas: 148
    Último mensaje: 28/08/2011, 23:19
  3. Battle Los Angeles 2011 720p [Ingles +Sub Español]
    Por Njord10 en el foro Peliculas en HD-DVD, BluRay, HDTV Gratis
    Respuestas: 4
    Último mensaje: 03/07/2011, 00:10
  4. Battle: Los Angeles (Battle L.A.) 2011 R5 Ingles Sub Español Pegados Accion Estreno
    Por Cadagoto en el foro Peliculas DVDRip Subtituladas Gratis
    Respuestas: 14
    Último mensaje: 19/06/2011, 16:02
  5. Battle Los Angeles (2011) [720p BluRay x264][V.O.Ingles][Ciencia ficción]
    Por Tino713 en el foro Peliculas en HD-DVD, BluRay, HDTV Gratis
    Respuestas: 2
    Último mensaje: 20/05/2011, 18:35