Resultados 1 al 29 de 29
Like Tree5Likes
  • 4 Post By xhyruja
  • 1 Post By lee200

U2 Rattle and Hum [HDDVD][Sub. Español]Para Coleccionistas


Descargar U2 Rattle and Hum [HDDVD][Sub. Español]Para Coleccionistas Gratis 1 link Full U2 Rattle and Hum [HDDVD][Sub. Español]Para Coleccionistas por Mediafire con Crack, Serial, KeyGen Full Torrent

  1. xhyruja está desconectado Uploader
    Fecha de ingreso
    23 dic, 09
    Mensajes
    2,007

    U2 Rattle and Hum [HDDVD][Sub. Español]Para Coleccionistas



    U2 Rattle and Hum 1988 HDDVD
    BluRay DTS x264 | AVC 9 035 kbps | 1280×720 | 118 Min | 6.91 GB
    Idioma: Ingles | Sub. Español Ingles e italiano | Genero: Rock| Para coleccionistas


    Un documental de la Banda irlandesa U2, echo en la gira de 1987 por América del Norte.

    La calidad del Documental es increible y el audio sencillamente espectacular , espero sepan apreciar este trabajo. Que lo disfruten


    Un documental de la Banda irlandesa U2, echo en la gira de 1987 por América del Norte.

    La calidad del Documental es increible y el audio sencillamente espectacular , espero sepan apreciar este trabajo. Que lo disfruten


    SINOPSIS

    Rattle & Hum es el sexto disco de la banda irlandesa U2. Está editado y publicado en el año 1988, y contiene temas sacados de su gira The Joshua Tree Tour y otros nuevos, de estudio. Se calcula que vendió 7.500.000 copias, y forma parte de los clásicos del grupo.

    Datos de la Pelicula
    Director:
    Phil Joanou
    Actores:
    Bono, The Edge and Adam Clayton

    Info Codificacion

    Nombre Archivo: U2_Rattle_and_Hum_by_almacervecera.mkv
    Tamaño: 7415091696 bytes (6.91 GiB),
    Duracion: 01:38:52,
    avg.bitrate: 10000 kb/s
    Audio: dts, 48000 Hz, 5:1 (eng)
    Video: h264, yuv420p, 1280×720, 23.98 fps(r) (eng)
    Subtitulos: ita eng spa
    Subido: by_almacervecera

    General

    Nombre Completo : U2_Rattle_and_Hum_by_almacervecera.mkv
    Formato : Matroska
    Tamaño : 6.91 GiB
    Duracion : 1h 38mn
    Tasa total de bits : 10 000 Kbps
    Película nombre : U2 Rattle and Hum (1988)
    Encoded date : UTC 2011-04-4 11:13:49
    Writing application : mkvmerge v4.2.0 (‘No Talking’) built on Jul 28 2010 13:54:07
    Writing library : libebml v1.0.0 + libmatroska v1.0.0
    Name Riper: almacervecera

    Video

    ID : 1
    Format : AVC
    Format/Info : Advanced Video Codec
    Format profile : High@L5.1
    Format settings, CABAC : Yes
    Format settings, ReFrames : 8 frames
    Format settings, GOP : N=1
    Muxing mode : Container profile=Unknown@5.1
    Codec ID : V_MPEG4/ISO/AVC
    Duration : 1h 38mn
    Bit rate : 8 291 Kbps
    Nominal de velocidad de bits : 8 854 Kbps
    Width : 1 280 pixels
    Height : 720 pixels
    Mostrar la relación de aspecto : 16:9
    Tasa de imágenes : 23.976 fps
    Color space : YUV
    Chroma subsampling : 4:2:0
    Bit depth : 8 bits
    Scan type : Progressive
    Bits/(Pixel*Frame) : 0.375
    Stream size : 5.73 GiB (83%)
    Writing library : x264 core 54 svn-623M
    Encoding settings : cabac=1 / ref=5 / deblock=1:0:0 / analyse=0×3:0×133 / me=umh / subme=6 / brdo=1 / mixed_ref=1 / me_range=16 / chroma_me=1 / trellis=1 / 8x8dct=1 / cqm=2 / deadzone=21,11 / chroma_qp_offset=0 / threads=3 / nr=0 / decimate=1 / mbaff=0 / bframes=3 / b_pyramid=1 / b_adapt=1 / b_bias=0 / direct=1 / wpredb=1 / bime=1 / keyint=250 / keyint_min=25 / scenecut=40(pre) / rc=2pass / bitrate=8854 / ratetol=1.0 / rceq=’blurCplx^(1-qComp)’ / qcomp=0.60 / qpmin=10 / qpmax=51 / qpstep=4 / cplxblur=20.0 / qblur=0.5 / ip_ratio=1.40 / pb_ratio=1.30

    Audio

    ID : 2
    Format : DTS
    Format/Info : Digital Theater Systems
    Format profile : ES
    Codec ID : A_DTS
    Duration : 1h 38mn
    Bit rate mode : Constant
    Bit rate : 1 510 Kbps
    Channel(s) : 7 channels
    Channel positions : Front: L C R, Side: L R, Back: C, LFE
    Sampling rate : 48.0 KHz
    Bit depth : 24 bits
    Stream size : 1.04 GiB (15%)

    Text #1

    ID : 3
    Format : UTF-8
    Codec ID : S_TEXT/UTF8
    Codec ID/Info : UTF-8 Plain Text
    Language : Italian

    Text #2


    ID : 4
    Format : UTF-8
    Codec ID : S_TEXT/UTF8
    Codec ID/Info : UTF-8 Plain Text

    Text #3

    ID : 5
    Format : UTF-8
    Codec ID : S_TEXT/UTF8
    Codec ID/Info : UTF-8 Plain Text
    Language : Spanish

    Menu

    00:00:00.000 : en:Helter Skelter
    00:03:10.520 : en:Van Diemen’s Land
    00:05:24.520 : enesire
    00:10:16.350 : en:Exit
    00:14:38.050 : en:I Still Haven’t Found What I’m Looking For
    00:19:17.050 : en:Freedom For My People/Silver and Gold
    00:26:01.220 : en:Angel of Harlem
    00:29:43.170 : en:All Along the Watchtower
    00:34:37.300 : en:In God’s Country
    00:37:21.300 : en:When Love Comes To Town
    00:43:11.470 : en:Heartland
    00:47:16.450 : en:Bad
    00:55:31.350 : en:Where the Streets Have No Name
    01:01:58.370 : en:MLK
    01:04:00.420 : en:With or Without You
    01:09:24.200 : en:Star Spangled Banner/Bullet the Blue Sky
    01:15:16.050 : en:Running To Stand Still
    01:19:36.170 : en:Sunday Bloody Sunday
    01:27:25.100 : en:Pride (In the Name of Love)
    01:32:12.000 : en:All I Want Is You

    Lista de Temas:

    01. “Helter Skelter” (live)
    02. “Van Diemens Land”
    03. “Desire” (demo)
    04. “Exit” (live)
    05. “I Still Havent Found What Im Looking For” (rehearsal)
    06. “Freedom for My People” / “Silver and Gold” (live)
    07. “Angel of Harlem” (demo)
    08. “All Along the Watchtower” (live)
    09. “In Gods Country” (live)
    10. “When Love Comes to Town” (rehearsal/live/recital)
    11. “Heartland”
    12. “Bad” / “Ruby Tuesday” / “Sympathy for the Devil” (live)
    13. “Where the Streets Have No Name” (live)
    14. “MLK” (live)
    15. “With or Without You” (live)
    16. “The Star-Spangled Banner” / “Bullet the Blue Sky” (live)
    17. “Running to Stand Still” (live)
    18. “Sunday Bloody Sunday” (live)
    19. “Pride (In the Name of Love)” (live)
    20. “All I Want Is You”



    CAPTURAS





    Sin contraseña | Facil Extraction | Links Intercambiables


    Código:
    		
    		
    Contenido Oculto Este post contiene información oculta, debes contestar el post o hacer click en el botón 'Gracias' para ver el contenido.
    Código:
    		
    		
    Contenido Oculto Este post contiene información oculta, debes contestar el post o hacer click en el botón 'Gracias' para ver el contenido.
    Código:
    		
    		
    Contenido Oculto Este post contiene información oculta, debes contestar el post o hacer click en el botón 'Gracias' para ver el contenido.
    Código:
    		
    		
    Contenido Oculto Este post contiene información oculta, debes contestar el post o hacer click en el botón 'Gracias' para ver el contenido.
    Última edición por xhyruja; 05/05/2011 a las 04:22
    <a href=Solo los usuarios registrados pueden ver los links de descarga. ¡Registrate ahora, ES GRATIS! " border="0" />



  2. Avatar de miirkoo
    miirkoo está desconectado *Dios del FORO*
    Fecha de ingreso
    21 feb, 11
    Ubicación
    Chile
    Mensajes
    1,625

    Re: U2 Rattle and Hum [HDDVD][Sub. Español]Para Coleccionistas

    Gracias
    !Publicado en el Home!
    ***Visita mis Aportes***

    Solo los usuarios registrados pueden ver los links de descarga. ¡Registrate ahora, ES GRATIS!
    <<<----- No Olvides Agradecer ----->>>

    Mandar Mp por archivos dañados ^^ para resubir.

  3. fsalinasc está desconectado *Experto*
    Fecha de ingreso
    19 abr, 09
    Mensajes
    227

    Re: U2 Rattle and Hum [HDDVD][Sub. Español]Para Coleccionistas

    Graciassssssssssssssssss

  4. gallote está desconectado *Experto*
    Fecha de ingreso
    10 jun, 10
    Mensajes
    314

    Re: U2 Rattle and Hum [HDDVD][Sub. Español]Para Coleccionistas

    graxieeeeeeeeeeeeeeeeeeeeeeeeeeeeeeeeeeeeeeeeeee

  5. Juan Carlos Elsapo está desconectado *User Pro*
    Fecha de ingreso
    12 mar, 09
    Mensajes
    458

    Re: U2 Rattle and Hum [HDDVD][Sub. Español]Para Coleccionistas

    Muchas gracias por el aporte

  6. caesar51 está desconectado *Master*
    Fecha de ingreso
    18 nov, 08
    Mensajes
    780

    Re: U2 Rattle and Hum [HDDVD][Sub. Español]Para Coleccionistas

    que buen aporte gracias

  7. pathglz está desconectado *Experto*
    Fecha de ingreso
    19 abr, 10
    Mensajes
    367

    Re: U2 Rattle and Hum [HDDVD][Sub. Español]Para Coleccionistas

    thanks........

  8. funfun está desconectado *Novato Avanzado*
    Fecha de ingreso
    28 mar, 11
    Mensajes
    44

    Re: U2 Rattle and Hum [HDDVD][Sub. Español]Para Coleccionistas

    Impresionante graxxxxxxxxxxxxxxxxxxxxxxx

  9. otchh está desconectado *Dios del FORO*
    Fecha de ingreso
    17 feb, 10
    Mensajes
    1,539

    Re: U2 Rattle and Hum [HDDVD][Sub. Español]Para Coleccionistas

    Gracias!!!!!!!!!!

  10. marvincomic está desconectado *Dios del FORO*
    Fecha de ingreso
    04 dic, 09
    Mensajes
    1,436

    Re: U2 Rattle and Hum [HDDVD][Sub. Español]Para Coleccionistas

    graxxxxxxxxxxxxxxxxxxxxxxxxxxxxxxxxxxxxxxxxxxxxxxx xxxxxxxxxxxxxxxxxxxxxxxx

  11. JAVIER_CUENCA está desconectado *Dios del FORO*
    Fecha de ingreso
    18 abr, 08
    Ubicación
    Veracruz Mexico
    Mensajes
    2,058

    Re: U2 Rattle and Hum [HDDVD][Sub. Español]Para Coleccionistas

    gracias por el aporte...ok

  12. maviza está desconectado *Novato Avanzado*
    Fecha de ingreso
    03 jul, 10
    Mensajes
    86

    Re: U2 Rattle and Hum [HDDVD][Sub. Español]Para Coleccionistas

    Me encanta!!!!!!!!!! Gcs

  13. sheismysin está desconectado *Novato reciente*
    Fecha de ingreso
    11 ago, 10
    Mensajes
    22

    Re: U2 Rattle and Hum [HDDVD][Sub. Español]Para Coleccionistas

    de coleccion man excelente gracias

  14. TONK1987 está desconectado *Novato reciente*
    Fecha de ingreso
    23 sep, 09
    Mensajes
    8

    Re: U2 Rattle and Hum [HDDVD][Sub. Español]Para Coleccionistas

    Buen aporte gracias

  15. artvid está desconectado *Novato Avanzado*
    Fecha de ingreso
    12 ene, 12
    Mensajes
    33

    Re: U2 Rattle and Hum [HDDVD][Sub. Español]Para Coleccionistas

    muchas gracias.

  16. trayser está desconectado *Novato Avanzado*
    Fecha de ingreso
    28 feb, 10
    Mensajes
    48

    Re: U2 Rattle and Hum [HDDVD][Sub. Español]Para Coleccionistas

    graciasssssssssssss man

  17. judith lara está desconectado *Experto*
    Fecha de ingreso
    28 abr, 09
    Ubicación
    He vuelto al paraiso
    Mensajes
    355

    Re: U2 Rattle and Hum [HDDVD][Sub. Español]Para Coleccionistas

    gracias......

  18. greatfalcon está desconectado *Novato reciente*
    Fecha de ingreso
    05 jul, 11
    Mensajes
    12

    Re: U2 Rattle and Hum [HDDVD][Sub. Español]Para Coleccionistas

    muy bueno man

  19. estrella3516 está desconectado *Novato reciente*
    Fecha de ingreso
    03 ago, 11
    Mensajes
    20

    Re: U2 Rattle and Hum [HDDVD][Sub. Español]Para Coleccionistas

    gracias totales

  20. GMGMONTECI está desconectado *Novato reciente*
    Fecha de ingreso
    28 may, 12
    Mensajes
    2

    Re: U2 Rattle and Hum [HDDVD][Sub. Español]Para Coleccionistas

    te pasaste wn graccccccccccccccccccccccccccccccccccciiiiiiasssss sssssssssssss

  21. GMGMONTECI está desconectado *Novato reciente*
    Fecha de ingreso
    28 may, 12
    Mensajes
    2

    Re: U2 Rattle and Hum [HDDVD][Sub. Español]Para Coleccionistas

    Grassssssssssssssssssssssssiiiiiiiiiiiiiiiiiaaaaaa aaaaaaaaaasssssssssssssssssssssss

  22. lee200 está desconectado *Novato Avanzado*
    Fecha de ingreso
    26 dic, 09
    Mensajes
    53

    Re: U2 Rattle and Hum [HDDVD][Sub. Español]Para Coleccionistas

    Cita Iniciado por xhyruja Ver mensaje

    U2 Rattle and Hum 1988 HDDVD
    BluRay DTS x264 | AVC 9 035 kbps | 1280×720 | 118 Min | 6.91 GB
    Idioma: Ingles | Sub. Español Ingles e italiano | Genero: Rock| Para coleccionistas


    Un documental de la Banda irlandesa U2, echo en la gira de 1987 por América del Norte.

    La calidad del Documental es increible y el audio sencillamente espectacular , espero sepan apreciar este trabajo. Que lo disfruten


    Un documental de la Banda irlandesa U2, echo en la gira de 1987 por América del Norte.

    La calidad del Documental es increible y el audio sencillamente espectacular , espero sepan apreciar este trabajo. Que lo disfruten


    SINOPSIS

    Rattle & Hum es el sexto disco de la banda irlandesa U2. Está editado y publicado en el año 1988, y contiene temas sacados de su gira The Joshua Tree Tour y otros nuevos, de estudio. Se calcula que vendió 7.500.000 copias, y forma parte de los clásicos del grupo.

    Datos de la Pelicula
    Director:
    Phil Joanou
    Actores:
    Bono, The Edge and Adam Clayton

    Info Codificacion

    Nombre Archivo: U2_Rattle_and_Hum_by_almacervecera.mkv
    Tamaño: 7415091696 bytes (6.91 GiB),
    Duracion: 01:38:52,
    avg.bitrate: 10000 kb/s
    Audio: dts, 48000 Hz, 5:1 (eng)
    Video: h264, yuv420p, 1280×720, 23.98 fps(r) (eng)
    Subtitulos: ita eng spa
    Subido: by_almacervecera

    General

    Nombre Completo : U2_Rattle_and_Hum_by_almacervecera.mkv
    Formato : Matroska
    Tamaño : 6.91 GiB
    Duracion : 1h 38mn
    Tasa total de bits : 10 000 Kbps
    Película nombre : U2 Rattle and Hum (1988)
    Encoded date : UTC 2011-04-4 11:13:49
    Writing application : mkvmerge v4.2.0 (‘No Talking’) built on Jul 28 2010 13:54:07
    Writing library : libebml v1.0.0 + libmatroska v1.0.0
    Name Riper: almacervecera

    Video

    ID : 1
    Format : AVC
    Format/Info : Advanced Video Codec
    Format profile : High@L5.1
    Format settings, CABAC : Yes
    Format settings, ReFrames : 8 frames
    Format settings, GOP : N=1
    Muxing mode : Container profile=Unknown@5.1
    Codec ID : V_MPEG4/ISO/AVC
    Duration : 1h 38mn
    Bit rate : 8 291 Kbps
    Nominal de velocidad de bits : 8 854 Kbps
    Width : 1 280 pixels
    Height : 720 pixels
    Mostrar la relación de aspecto : 16:9
    Tasa de imágenes : 23.976 fps
    Color space : YUV
    Chroma subsampling : 4:2:0
    Bit depth : 8 bits
    Scan type : Progressive
    Bits/(Pixel*Frame) : 0.375
    Stream size : 5.73 GiB (83%)
    Writing library : x264 core 54 svn-623M
    Encoding settings : cabac=1 / ref=5 / deblock=1:0:0 / analyse=0×3:0×133 / me=umh / subme=6 / brdo=1 / mixed_ref=1 / me_range=16 / chroma_me=1 / trellis=1 / 8x8dct=1 / cqm=2 / deadzone=21,11 / chroma_qp_offset=0 / threads=3 / nr=0 / decimate=1 / mbaff=0 / bframes=3 / b_pyramid=1 / b_adapt=1 / b_bias=0 / direct=1 / wpredb=1 / bime=1 / keyint=250 / keyint_min=25 / scenecut=ñle : Constant
    Bit rate : 1 510 Kbps
    Channel(s) : 7 channels
    Channel positions : Front: L C R, Side: L R, Back: C, LFE
    Sampling rate : 48.0 KHz
    Bit depth : 24 bits
    Stream size : 1.04 GiB (15%)

    Text #1

    ID : 3
    Format : UThlñhgklguol.gjkjkñF-8
    Codec ID : S_TEXT/UTF8gk,ghj,kghj,ggjk,jk jgk bk,gb
    Codec ID/Info : UTF-8 Plain Text
    Language : Italian

    Text #2


    ID : 4
    Format : UTF-8
    Codec ID : S_TEXT/UTF8
    Codec ID/Info : UTF-8 Plain Text

    Text #3

    ID : 5ggggggggggggggggggggggggggggggggggggggggggggggggg gggggggggggggggggggggggggggggggggggggggggggggggggg gggggggggggggggggggggggggggggggggggggggggggggggggg gggggggggggggggggggggggggggggggggg
    Format : UTF-8
    Codec ID : S_TEXT/UTF8
    Codec ID/Info : UTF-8 Plain Text
    Language : Spanish

    Menu

    00:00:00.000 : en:Helter Skelter
    00:03:10.520 : en:Van Diemen’s Land
    00:05:24.520 : enesire
    00:10:16.350 : en:Exit
    00:14:38.050 : en:I Still Haven’t Found What I’m Looking For
    00:19:17.050 : en:Freedom For My People/Silver and Gold
    00:26:01.220 : en:Angel of Harlem
    00:29:43.170 : en:All Along the Watchtower
    00:34:37.300 : en:In God’s Country
    00:37:21.300 : en:When Love Comes To Town
    00:43:11.470 : en:Heartland
    00:47:16.450 : en:Bad
    00:55:31.350 : en:Where the Streets Have No Name
    01:01:58.370 : en:MLK
    01:04:00.420 : en:With or Without You
    01:09:24.200 : en:Star Spangled Banner/Bullet the Blue Sky
    01:15:16.050 : en:Running To Stand Still
    01:19:36.170 : en:Sunday Bloody Sunday
    01:27:25.100 : en:Pride (In the Name of Love)
    01:32:12.000 : en:All I Want Is You

    Lista de Temas:

    01. “Helter Skelter” (live)
    02. “Van Diemens Land”
    03. “Desire” (demo)
    04. “Exit” (live)
    05. “I Still Havent Found What Im Looking For” (rehearsal)
    06. “Freedom for My People” / “Silver and Gold” (live)
    07. “Angel of Harlem” (demo)
    08. “All Along the Watchtower” (live)
    09. “In Gods Country” (live)
    10. “When Love Comes to Town” (rehearsal/live/recital)
    11. “Heartland”
    12. “Bad” / “Ruby Tuesday” / “Sympathy for the Devil” (live)
    13. “Where the Streets Have No Name” (live)
    14. “MLK” (live)
    15. “With or Without You” (live)
    16. “The Star-Spangled Banner” / “Bullet the Blue Sky” (live)
    17. “Running to Stand Still” (live)
    18. “Sunday Bloody Sunday” (live)
    19. “Pride (In the Name of Love)” (live)
    20. “All I Want Is You”



    CAPTURAS





    Sin contraseña | Facil Extraction | Links Intercambiables


    Código:
    hidden content may not be quoted
    Código:
    hidden content may not be quoted
    Código:
    hidden content may not be quoted
    Código:
    hidden content may not be quoted
    gggggggggggggggggggggggggggggggggggggggggggggggggg gggggggggggggggggggggggggggggggggggggggggggggggggg gggggggggggggggggggggggggggggggggggggggggggggggggg gggggggggggggggggggggggggggggggggggggggggggggggg
    gabeles likes this.

  23. d_a_l_f está desconectado *Novato reciente*
    Fecha de ingreso
    10 mar, 12
    Mensajes
    8

    Re: U2 Rattle and Hum [HDDVD][Sub. Español]Para Coleccionistas

    Espero que aún esté en línea. Gracias!

  24. kikasramiro está desconectado *Novato reciente*
    Fecha de ingreso
    20 jul, 12
    Mensajes
    1

    Re: U2 Rattle and Hum [HDDVD][Sub. Español]Para Coleccionistas

    graciasssssssssssss

  25. mercury_str está desconectado *Novato reciente*
    Fecha de ingreso
    06 oct, 12
    Mensajes
    1

    Re: U2 Rattle and Hum [HDDVD][Sub. Español]Para Coleccionistas

    graciasss ADORO U2!!!!!!!

  26. leukante está desconectado *Novato reciente*
    Fecha de ingreso
    08 dic, 11
    Mensajes
    6

    Re: U2 Rattle and Hum [HDDVD][Sub. Español]Para Coleccionistas

    wena graciassssssssss

  27. The revolution está desconectado *Novato reciente*
    Fecha de ingreso
    16 dic, 12
    Mensajes
    1

    Re: U2 Rattle and Hum [HDDVD][Sub. Español]Para Coleccionistas

    graciassssss

  28. ir7673 está desconectado *Novato reciente*
    Fecha de ingreso
    02 abr, 12
    Mensajes
    2

    Re: U2 Rattle and Hum [HDDVD][Sub. Español]Para Coleccionistas

    gracias muchas gracias por el aporte

  29. mamotreto2000 está desconectado *Novato reciente*
    Fecha de ingreso
    09 ene, 13
    Mensajes
    1

    Re: U2 Rattle and Hum [HDDVD][Sub. Español]Para Coleccionistas

    Graciasssssssss
    Cita Iniciado por xhyruja Ver mensaje

    u2 rattle and hum 1988 hddvd
    bluray dts x264 | avc 9 035 kbps | 1280×720 | 118 min | 6.91 gb
    idioma: Ingles | sub. Español ingles e italiano | genero: Rock| para coleccionistas


    un documental de la banda irlandesa u2, echo en la gira de 1987 por américa del norte.

    La calidad del documental es increible y el audio sencillamente espectacular , espero sepan apreciar este trabajo. Que lo disfruten


    un documental de la banda irlandesa u2, echo en la gira de 1987 por américa del norte.

    La calidad del documental es increible y el audio sencillamente espectacular , espero sepan apreciar este trabajo. Que lo disfruten


    sinopsis

    rattle & hum es el sexto disco de la banda irlandesa u2. Está editado y publicado en el año 1988, y contiene temas sacados de su gira the joshua tree tour y otros nuevos, de estudio. Se calcula que vendió 7.500.000 copias, y forma parte de los clásicos del grupo.

    datos de la pelicula
    director:
    Phil joanou
    actores:
    Bono, the edge and adam clayton

    info codificacion

    nombre archivo: U2_rattle_and_hum_by_almacervecera.mkv
    tamaño: 7415091696 bytes (6.91 gib),
    duracion: 01:38:52,
    avg.bitrate: 10000 kb/s
    audio: Dts, 48000 hz, 5:1 (eng)
    video: H264, yuv420p, 1280×720, 23.98 fps(r) (eng)
    subtitulos: Ita eng spa
    subido: by_almacervecera

    general

    nombre completo : U2_rattle_and_hum_by_almacervecera.mkv
    formato : Matroska
    tamaño : 6.91 gib
    duracion : 1h 38mn
    tasa total de bits : 10 000 kbps
    película nombre : U2 rattle and hum (1988)
    encoded date : Utc 2011-04-4 11:13:49
    writing application : Mkvmerge v4.2.0 (‘no talking’) built on jul 28 2010 13:54:07
    writing library : Libebml v1.0.0 + libmatroska v1.0.0
    name riper: Almacervecera

    video

    id : 1
    format : Avc
    format/info : Advanced video codec
    format profile : High@l5.1
    format settings, cabac : Yes
    format settings, reframes : 8 frames
    format settings, gop : N=1
    muxing mode : Container profile=unknown@5.1
    codec id : V_mpeg4/iso/avc
    duration : 1h 38mn
    bit rate : 8 291 kbps
    nominal de velocidad de bits : 8 854 kbps
    width : 1 280 pixels
    height : 720 pixels
    mostrar la relación de aspecto : 16:9
    tasa de imágenes : 23.976 fps
    color space : Yuv
    chroma subsampling : 4:2:0
    bit depth : 8 bits
    scan type : Progressive
    bits/(pixel*frame) : 0.375
    stream size : 5.73 gib (83%)
    writing library : X264 core 54 svn-623m
    encoding settings : Cabac=1 / ref=5 / deblock=1:0:0 / analyse=0×3:0×133 / me=umh / subme=6 / brdo=1 / mixed_ref=1 / me_range=16 / chroma_me=1 / trellis=1 / 8x8dct=1 / cqm=2 / deadzone=21,11 / chroma_qp_offset=0 / threads=3 / nr=0 / decimate=1 / mbaff=0 / bframes=3 / b_pyramid=1 / b_adapt=1 / b_bias=0 / direct=1 / wpredb=1 / bime=1 / keyint=250 / keyint_min=25 / scenecut=40(pre) / rc=2pass / bitrate=8854 / ratetol=1.0 / rceq=’blurcplx^(1-qcomp)’ / qcomp=0.60 / qpmin=10 / qpmax=51 / qpstep=4 / cplxblur=20.0 / qblur=0.5 / ip_ratio=1.40 / pb_ratio=1.30

    audio

    id : 2
    format : Dts
    format/info : Digital theater systems
    format profile : Es
    codec id : A_dts
    duration : 1h 38mn
    bit rate mode : Constant
    bit rate : 1 510 kbps
    channel(s) : 7 channels
    channel positions : Front: L c r, side: L r, back: C, lfe
    sampling rate : 48.0 khz
    bit depth : 24 bits
    stream size : 1.04 gib (15%)

    text #1

    id : 3
    format : Utf-8
    codec id : S_text/utf8
    codec id/info : Utf-8 plain text
    language : Italian

    text #2


    id : 4
    format : Utf-8
    codec id : S_text/utf8
    codec id/info : Utf-8 plain text

    text #3

    id : 5
    format : Utf-8
    codec id : S_text/utf8
    codec id/info : Utf-8 plain text
    language : Spanish

    menu

    00:00:00.000 : En:helter skelter
    00:03:10.520 : En:van diemen’s land
    00:05:24.520 : En:desire
    00:10:16.350 : En:exit
    00:14:38.050 : En:i still haven’t found what i’m looking for
    00:19:17.050 : En:freedom for my people/silver and gold
    00:26:01.220 : En:angel of harlem
    00:29:43.170 : En:all along the watchtower
    00:34:37.300 : En:in god’s country
    00:37:21.300 : En:when love comes to town
    00:43:11.470 : En:heartland
    00:47:16.450 : En:bad
    00:55:31.350 : En:where the streets have no name
    01:01:58.370 : En:mlk
    01:04:00.420 : En:with or without you
    01:09:24.200 : En:star spangled banner/bullet the blue sky
    01:15:16.050 : En:running to stand still
    01:19:36.170 : En:sunday bloody sunday
    01:27:25.100 : Enride (in the name of love)
    01:32:12.000 : En:all i want is you

    lista de temas:

    01. “helter skelter” (live)
    02. “van diemens land”
    03. “desire” (demo)
    04. “exit” (live)
    05. “i still havent found what im looking for” (rehearsal)
    06. “freedom for my people” / “silver and gold” (live)
    07. “angel of harlem” (demo)
    08. “all along the watchtower” (live)
    09. “in gods country” (live)
    10. “when love comes to town” (rehearsal/live/recital)
    11. “heartland”
    12. “bad” / “ruby tuesday” / “sympathy for the devil” (live)
    13. “where the streets have no name” (live)
    14. “mlk” (live)
    15. “with or without you” (live)
    16. “the star-spangled banner” / “bullet the blue sky” (live)
    17. “running to stand still” (live)
    18. “sunday bloody sunday” (live)
    19. “pride (in the name of love)” (live)
    20. “all i want is you”



    capturas





    sin contraseña | facil extraction | links intercambiables


    Código:
    hidden content may not be quoted
    Código:
    hidden content may not be quoted
    Código:
    hidden content may not be quoted
    Código:
    hidden content may not be quoted

Temas similares

  1. Respuestas: 4033
    Último mensaje: 15/11/2013, 23:56
  2. 142 Fuentes para los coleccionistas
    Por kikecp en el foro Diseño Grafico
    Respuestas: 139
    Último mensaje: 11/10/2011, 13:05
  3. Respuestas: 61
    Último mensaje: 13/06/2011, 00:07
  4. Para Coleccionistas Megapost DD Girls
    Por morfeo626629 en el foro Fotos XXX Gratis
    Respuestas: 14
    Último mensaje: 08/05/2011, 08:28

Etiquetas para este tema