The Matrix Reloaded | 2003 | 1080p | Latino | ByDaNHD


Neo, Morpheus, Trinity y el resto de la tripulación continúan en la lucha contra las máquinas que han esclavizado a la raza humana. Ahora más humanos han sido despertados e intentan vivir en el mundo real. A medida que aumentan en número, la batalla se acerca a Sion, la última ciudad real en el mundo y centro de la resistencia humana. Y tiene poco tiempo, muy poco tiempo...
File size : 4. GB
Compatible : PS3 , Xbox 360 ,PC



Video
Format : AVC -M2TS
Duration : 2h 18mn
Bit rate : 3452 Kbps
Resolucion : 1920 x 1080 pixels
Frame rate : 23.976 fps
Stream size : 3.40 GiB (85%)


Audio
Format : AC-3
Bit rate : 448 Kbps
Channel(s) : 2.1 channels Dolby Digital
Stream size : 443 MiB (11%)
Language : Español Latino