Resultados 1 al 3 de 3

Resistencia [Defiance][2008][Castellano][HDRip][FLS - BS]


Descargar Resistencia [Defiance][2008][Castellano][HDRip][FLS - BS] Gratis 1 link Full Resistencia [Defiance][2008][Castellano][HDRip][FLS - BS] por Mediafire con Crack, Serial, KeyGen Full Torrent

  1. Avatar de biones
    biones está desconectado *Master*
    Fecha de ingreso
    02 dic, 08
    Mensajes
    769

    Resistencia [Defiance][2008][Castellano][HDRip][FLS - BS]







    Información del archivo en el servidor

    N° De Links: 6 - Intercambiables
    Servidor: FileServe & BitShare
    Tamaño: 2.5 GB

    Sinopsis

    Segunda Guerra Mundial. Corre el año 1941 y los judíos de Europa Oriental están siendo
    masacrados a millares. En la Bielorrusia ocupada, tres hermanos logran escapar de una
    muerte segura y se refugian en los densos bosques de alrededor de su casa, que
    conocen desde su infancia. Allí inician su desesperada lucha contra los nazis.
    Los tres hermanos Bielski convertirán la lucha por la supervivencia en algo
    mucho más importante, una forma de vengar las muertes de sus seres
    queridos al salvar a miles de personas. Al principio es cuanto
    pueden hacer para sobrevivir pero, poco a poco, a medida que
    se extienden los rumores sobre su coraje, empiezan a atraer
    a otros, hombres y mujeres, jóvenes y ancianos, dispuestos
    a arriesgarlo todo por un instante siquiera de libertad.

    Capturas



    Ficha tecnica de la pelicula

    TÍTULO ORIGINAL: Defiance
    AÑO: 2008
    DURACIÓN: 137 min.
    PAÍS: Estados Unidos
    DIRECTOR: Edward Zwick
    GUIÓN: Edward Zwick, Clay Frohman
    MÚSICA: James Newton Howard
    FOTOGRAFÍA: Eduardo Serra
    REPARTO: Daniel Craig, Liev Schreiber, Jamie Bell, Alexa Davalos, Allan Corduner, Mark
    Feuerstein, Mia Wasikowska, George MacKay, Iben Hjejle, Allan Corduner, Tomas Arana,
    Jodhi May
    PRODUCTORA: Paramount Vantage / The Bedford Falls Company / Grosvenor Park Productions
    PREMIOS: 2008: Nominada al Oscar: Mejor banda sonora original
    2008: Nominada al Globo de Oro: Mejor banda sonora original
    GÉNERO: Bélico. Drama | II Guerra Mundial. Holocausto. Basado en hechos reales

    Datos del rippeo


    General
    Complete name : files/O2312RHRCAS.avi
    Idioma: Castellano
    Format : AVI
    Format/Info : Audio Video Interleave
    Format profile : OpenDML
    File size : 2.51 GiB
    Duration : 2h 16mn
    Overall bit rate : 2 625 Kbps
    Writing application : VirtualDubMod 1.5.10.2 (build 2540/release)
    Writing library : VirtualDubMod build 2540/release

    Video
    ID : 0
    Format : MPEG-4 Visual
    Format profile : Advanced Simple@L5
    Format settings, BVOP : Yes
    Format settings, QPel : No
    Format settings, GMC : No warppoints
    Format settings, Matrix : Default (H.263)
    Codec ID : XVID
    Codec ID/Hint : XviD
    Duration : 2h 16mn
    Bit rate : 1 974 Kbps
    Width : 720 pixels
    Height : 400 pixels
    Display aspect ratio : 16:9
    Frame rate : 23.976 fps
    Color space : YUV
    Chroma subsampling : 4:2:0
    Bit depth : 8 bits
    Scan type : Progressive
    Compression mode : Lossy
    Bits/(Pixel*Frame) : 0.286
    Stream size : 1.89 GiB (75%)
    Writing library : XviD 1.1.2 (UTC 2006-11-01)

    Audio
    ID : 1
    Format : AC-3
    Format/Info : Audio Coding 3
    Mode extension : CM (complete main)
    Codec ID : 2000
    Duration : 2h 16mn
    Bit rate mode : Constant
    Bit rate : 640 Kbps
    Channel(s) : 6 channels
    Channel positions : Front: L C R, Side: L R, LFE
    Sampling rate : 48.0 KHz
    Bit depth : 16 bits
    Compression mode : Lossy
    Stream size : 626 MiB (24%)
    Alignment : Split accross interleaves
    Interleave, duration : 42 ms (1.00 video frame)
    Interleave, preload duration : 500 ms


    Descarga

    Contenido Oculto Este post contiene información oculta, debes contestar el post o hacer click en el botón 'Gracias' para ver el contenido.




  2. crack20 está desconectado *Novato Avanzado*
    Fecha de ingreso
    22 nov, 09
    Mensajes
    51

    Re: Resistencia [Defiance][2008][Castellano][HDRip][FLS - BS]

    gracias, buena pelicula

  3. barontruen está desconectado *Novato reciente*
    Fecha de ingreso
    07 ene, 12
    Mensajes
    8

    Re: Resistencia [Defiance][2008][Castellano][HDRip][FLS - BS]

    buen post, Gracias

Temas similares

  1. Resistencia (Defiance) [2008]
    Por Quary en el foro Peliculas DVDRip en Español Latino
    Respuestas: 6
    Último mensaje: 13/05/2012, 01:23
  2. Resistencia (Defiance) rmvb sub espanol
    Por m022078 en el foro Peliculas RMVB Gratis
    Respuestas: 2
    Último mensaje: 21/02/2012, 12:46
  3. Resistencia [2008][DVDrip][Castellano]
    Por komomolo en el foro Peliculas DVDRip en Castellano
    Respuestas: 73
    Último mensaje: 28/05/2011, 22:44
  4. Resistencia (2008)[DVDRip][Castellano][Accion]
    Por jani en el foro Peliculas DVDRip en Castellano
    Respuestas: 14
    Último mensaje: 31/12/2009, 10:37
  5. Resistencia [DvdScreener][Drama Bélico][Castellano][2008]
    Por genio111 en el foro Peliculas DVD Screener Gratis
    Respuestas: 17
    Último mensaje: 15/12/2009, 21:21