Resultados 1 al 5 de 5

El Gran Torneo 2010 The Tournament BluRay 1080p Mkv Español(Esp)AC3/Ingles(Us)AC3 Su


Descargar El Gran Torneo 2010 The Tournament BluRay 1080p Mkv Español(Esp)AC3/Ingles(Us)AC3 Su Gratis 1 link Full El Gran Torneo 2010 The Tournament BluRay 1080p Mkv Español(Esp)AC3/Ingles(Us)AC3 Su por Mediafire con Crack, Serial, KeyGen Full Torrent

  1. Avatar de Cadagoto
    Cadagoto está desconectado *Dios del FORO*
    Fecha de ingreso
    22 sep, 09
    Ubicación
    En El Mejor Lugar De La Web ...La Mía :)
    Mensajes
    4,582

    El Gran Torneo 2010 The Tournament BluRay 1080p Mkv Español(Esp)AC3/Ingles(Us)AC3 Su






    El Gran Torneo 2010 The Tournament BluRay 1080p Mkv Español(Esp)AC3/Ingles(Us)AC3 Sub Accion



    Ficha Tecnica


    Título:
    Título original: The Tournament
    País: UK
    Estreno en USA:
    Estreno en España:
    Lanzamiento en DVD (alquiler): 16/03/2011
    Productora: Buzzfilms
    Director: Scott Mann
    Guión: Gary Young, Jonathan Frank & Nick Rowntree
    Reparto: Robert Carlyle, Kelly Hu, Ian Somerhalder, Liam Cunningham, Ving Rhames, Craig Conway, Nick Rowntree, Rachel Grant, Andy Nyman, Sebastien Foucan.


    Informacion

    Código:
    General
    Complete name : 	files/Torneo.1080p.Castellano.CadagotoHD.mkv
    Format : 	Matroska
    File size : 	7.55 GiB
    Duration : 	1h 35mn
    Overall bit rate : 	11.4 Mbps
    Encoded date : 	UTC 2011-03-16 07:48:04
    Writing application : 	mkvmerge v3.3.0 ('Language') built on Mar 24 2010 14:59:24
    Writing library : 	libebml v0.8.0 + libmatroska v0.9.0
    
    Video
    ID : 	1
    Format : 	AVC
    Format/Info : 	Advanced Video Codec
    Format profile : 	High@L4.1
    Format settings, CABAC : 	Yes
    Format settings, ReFrames : 	3 frames
    Muxing mode : 	Container profile=Unknown@4.1
    Codec ID : 	V_MPEG4/ISO/AVC
    Duration : 	1h 35mn
    Bit rate : 	10.3 Mbps
    Width : 	1 920 pixels
    Height : 	1 080 pixels
    Display aspect ratio : 	16:9
    Frame rate : 	23.976 fps
    Color space : 	YUV
    Chroma subsampling : 	4:2:0
    Bit depth : 	8 bits
    Scan type : 	Progressive
    Bits/(Pixel*Frame) : 	0.206
    Stream size : 	6.68 GiB (88%)
    Title : 	The.Toutnament.2009.vs_U
    Writing library : 	x264 core 65 r999 cc51047
    aq=1:1.0
    Language : 	English
    
    Audio #1
    ID : 	2
    Format : 	AC-3
    Format/Info : 	Audio Coding 3
    Mode extension : 	CM (complete main)
    Codec ID : 	A_AC3
    Duration : 	1h 35mn
    Bit rate mode : 	Constant
    Bit rate : 	448 Kbps
    Channel(s) : 	6 channels
    Channel positions : 	Front: L C R, Side: L R, LFE
    Sampling rate : 	48.0 KHz
    Bit depth : 	16 bits
    Video delay : 	500ms
    Stream size : 	305 MiB (4%)
    Language : 	Spanish
    
    Audio #2
    ID : 	3
    Format : 	AC-3
    Format/Info : 	Audio Coding 3
    Mode extension : 	CM (complete main)
    Codec ID : 	A_AC3
    Duration : 	1h 35mn
    Bit rate mode : 	Constant
    Bit rate : 	640 Kbps
    Channel(s) : 	6 channels
    Channel positions : 	Front: L C R, Side: L R, LFE
    Sampling rate : 	48.0 KHz
    Bit depth : 	16 bits
    Stream size : 	436 MiB (6%)
    Title : 	AC3 6ch 640 kbps
    Language : 	English
    
    Text #1
    ID : 	4
    Format : 	UTF-8
    Codec ID : 	S_TEXT/UTF8
    Codec ID/Info : 	UTF-8 Plain Text
    Language : 	Spanish
    
    Text #2
    ID : 	5
    Format : 	UTF-8
    Codec ID : 	S_TEXT/UTF8
    Codec ID/Info : 	UTF-8 Plain Text
    Language : 	English
    SINOPSIS

    Cada siete años en una ciudad cualquiera del mundo, los mejores asesinos profesionales del mundo se enfrentan los unos a los otros en una caza sin cuartel para quedar como únicos vencedores de un juego mortal. Sin embargo, la trama se complicará cuando un inocente cura se traga el señalizador de posición de uno de los jugadores convirtiéndolo automáticamente en objetivo del resto de los participantes...

    Capturas











    Descargar

    [spoiler]


    Contenido Oculto Este post contiene información oculta, debes contestar el post o hacer click en el botón 'Gracias' para ver el contenido.


    Si Los Links no estan On-Line , avisarme asi tratare de reponerlos , por el hilo del tema o por privado..... enviame el link del tema ..Gracias!



    [/spoiler]



    Aportar Toma Buen Tiempo ...............Agradecer No Te Cuesta Nada !



    CadagotoHD.Com
    Visita Mi Blog Con Mis Aportes (Firma Permitida Por Admin Warez)



  2. metazeta3 está desconectado *Novato Avanzado*
    Fecha de ingreso
    30 dic, 09
    Mensajes
    54

    Re: El Gran Torneo 2010 The Tournament BluRay 1080p Mkv Español(Esp)AC3/Ingles(Us)AC3

    buena peli del too

  3. djmaximus está desconectado *Novato reciente*
    Fecha de ingreso
    29 dic, 11
    Mensajes
    4

    Re: El Gran Torneo 2010 The Tournament BluRay 1080p Mkv Español(Esp)AC3/Ingles(Us)AC3

    Que buen aporte. Un Abrazo!

  4. yorsh73 está desconectado *Novato Avanzado*
    Fecha de ingreso
    28 abr, 09
    Mensajes
    92

    Re: El Gran Torneo 2010 The Tournament BluRay 1080p Mkv Español(Esp)AC3/Ingles(Us)AC3

    Gracias...

  5. carlosquenoran está desconectado *Experto*
    Fecha de ingreso
    21 abr, 10
    Mensajes
    242

    Re: El Gran Torneo 2010 The Tournament BluRay 1080p Mkv Español(Esp)AC3/Ingles(Us)AC3

    gracias por este post

Temas similares

  1. Respuestas: 2
    Último mensaje: 01/05/2012, 20:29
  2. El Gran Torneo [DVDRip][DUAL (Castellano/Inglés)][Acción][2009]
    Por badimafi en el foro Peliculas DVDRip en Castellano
    Respuestas: 0
    Último mensaje: 17/03/2011, 08:55
  3. The Tournament (El Gran Torneo) (2010) Megaupload 1
    Por franciscarojas123 en el foro Moviez Peliculas
    Respuestas: 0
    Último mensaje: 15/03/2011, 19:48
  4. The Tournament (El Torneo) [2009] [DVDRIp] [Español Latino] [Acción]
    Por Titanium en el foro Peliculas DVDRip en Español Latino
    Respuestas: 0
    Último mensaje: 13/03/2011, 15:10