Resultados 1 al 21 de 21
Like Tree1Likes
  • 1 Post By Arroyo2

Killer Movie 3D SbS [VOSE][2011][Terror][3DTV USB][BDrip 1080p MKV][DTS][9.37 Gb]


Descargar Killer Movie 3D SbS [VOSE][2011][Terror][3DTV USB][BDrip 1080p MKV][DTS][9.37 Gb] Gratis 1 link Full Killer Movie 3D SbS [VOSE][2011][Terror][3DTV USB][BDrip 1080p MKV][DTS][9.37 Gb] por Mediafire con Crack, Serial, KeyGen Full Torrent

  1. Arroyo2 está desconectado *Novato reciente*
    Fecha de ingreso
    09 ene, 11
    Mensajes
    20

    Killer Movie 3D SbS [VOSE][2011][Terror][3DTV USB][BDrip 1080p MKV][DTS][9.37 Gb]


    Killer Movie 3D


    TITULO EN ESPAÑA Killer Movie
    TITULO ORIGINAL Killer Movie
    WEB Solo los usuarios registrados pueden ver los links de descarga. ¡Registrate ahora, ES GRATIS!
    IDIOMA Inglés y Alemán con subtitulos en Español aparte
    AÑO 2008
    DURACIÓN 91 min.
    DIRECTOR Jeff Fisher
    GUION Jeff Fisher
    REPARTO Paul Wesley, Kaley Cuoco, Jason London, Torrey DeVitto, Al Santos, Cyia Batten, Leighton Meester.
    PRODUCTORA Movie Studio.
    GÉNERO Horror, Thriller, Misterio, Comedia.
    SINOPSIS: Un reality televisivo que se rueda en un remoto pueblo del norte se convertirá en una auténtica pesadilla cuando un asesino se presente en el lugar deseoso de acabar con los participantes y realizadores del programa.
    OPINIóN: Killer Movie es una peli dirigida en 2008 por Jeff Fisher. Debut en la dirección de pelis de este señor que hasta ahora se había dedicado a hacer carrera en el negocio de los reality-shows televisivos, asi que entiende del tema. La peli es un entretenido slasher de tratamiento clásico que transcurre en el escenario de la producción de un reality casposo típico televisivo. Jake es un joven realizador de TV que acepta hacerse cargo de un reality en un remoto pueblo de Dakota del Norte sobre el equipo local de hockey que está a punto de llegar a las finales. Al equipo se une Blanca Champion, una especie de Paris Hilton que revoluciona a todos. Lo que parece ser un trabajo fácil se transforma en una pesadilla cuando un asesino enmascarado aparece con la intención de hacer su propio reality acabando con todos los integrantes del equipo de TV y otros del pueblo. Con seguridad un slasher de los modernos pero decentes y muy distraidos, que sigue la fórmula típica del slasher clásico ochentero, aunque en un escenario más de actualidad como son esos reality-shows tan vomitivos que se hacen sobre cualquier cosa en la TV; un escenario que en realidad no es algo nuevo, ya que incluso la ultima de Halloween transcurría en un reality donde aparecía Michael Myers. Partiendo de la premisa de que en el slasher está todo dicho y poco sorprende y de que cualquiera que se rude va a tener todos los clichés de siempre, lo que hay que pedirle a una peli de estas es que distraiga y ésta lo consigue de sobra e incluso tiene ciertos momentos de brillantez, aunque no renuncia al asesino enmascarado típico de siempre, lo que le resta originalidad. Al nivel de slashers decentes recientes como Midnight Movie y demás, la peli deja abierto el final para una secuela, que no estaría mal que se rodase.

    [youtube]http://www.youtube.com/watch?v=IrzSCkAaAbQ[/youtube]
    Solo los usuarios registrados pueden ver los links de descarga. ¡Registrate ahora, ES GRATIS!


    MediaInfo
    Código:
    General
    Complete name : Killer.Movie.3D.2008.DL.1080p.3DBD.X26 4.half.SBS.z-man.mkv
    Format : Matroska
    File size : 9.37 GiB
    Duration : 1h 32mn
    Overall bit rate : 14.5 Mbps
    Encoded date : UTC 2011-03-05 20:20:00
    Writing application : mkvmerge v4.4.0 ('Die Wiederkehr') gebaut am Oct 31 2010 21:52:48
    Writing library : libebml v1.0.0 + libmatroska v1.0.0
    
    Video
    ID : 1
    Format : AVC
    Format/Info : Advanced Video Codec
    Format profile : High@L4.1
    Format settings, CABAC : Yes
    Format settings, ReFrames : 4 frames
    Muxing mode : Container profile=Unknown@0.0
    Codec ID : V_MPEG4/ISO/AVC
    Duration : 1h 32mn
    Bit rate : 13.0 Mbps
    Width : 1 920 pixels
    Height : 1 080 pixels
    Display aspect ratio : 16:9
    Frame rate : 23.976 fps
    Color space : YUV
    Chroma subsampling : 4:2:0
    Bit depth : 8 bits
    Scan type : Progressive
    Bits/(Pixel*Frame) : 0.261
    Stream size : 8.21 GiB (88%)
    Writing library : x264 core 114 r1913 5fd3dce
    
    Audio #1
    ID : 2
    Format : DTS
    Format/Info : Digital Theater Systems
    Codec ID : A_DTS
    Duration : 1h 32mn
    Bit rate mode : Constant
    Bit rate : 755 Kbps
    Channel(s) : 6 channels
    Channel positions : Front: L C R, Side: L R, LFE
    Sampling rate : 48.0 KHz
    Bit depth : 24 bits
    Compression mode : Lossy
    Stream size : 498 MiB (5%)
    Language : English
    
    Audio #2
    ID : 3
    Format : DTS
    Format/Info : Digital Theater Systems
    Codec ID : A_DTS
    Duration : 1h 32mn
    Bit rate mode : Constant
    Bit rate : 755 Kbps
    Channel(s) : 6 channels
    Channel positions : Front: L C R, Side: L R, LFE
    Sampling rate : 48.0 KHz
    Bit depth : 24 bits
    Compression mode : Lossy
    Stream size : 498 MiB (5%)
    Language : German
    Descargar Killer Movie 3D Versión VOSE:
    104 partes de 95,78 Mb mas 1 de 24,5 Mb y 5 archivos .rev divididos con Winrar.
    Servidores Intercambiables.
    Contenido Oculto Este post contiene información oculta, debes contestar el post o hacer click en el botón 'Gracias' para ver el contenido.
    francromero likes this.



  2. Avatar de R083RMX
    R083RMX está desconectado *Dios del FORO*
    Fecha de ingreso
    19 ene, 09
    Mensajes
    2,694

    Re: Killer Movie 3D SbS [VOSE][2011][Terror][3DTV USB][BDrip 1080p MKV][DTS][9.37 Gb]

    Gracias por el aporte!!

  3. Avatar de jagj85
    jagj85 está desconectado Moderadores
    Fecha de ingreso
    07 oct, 10
    Ubicación
    Zona Warez-Venezuela
    Mensajes
    15,546

    Re: Killer Movie 3D SbS [VOSE][2011][Terror][3DTV USB][BDrip 1080p MKV][DTS][9.37 Gb]

    Gracias por la pelicula.

  4. c_sani está desconectado *Novato reciente*
    Fecha de ingreso
    29 sep, 09
    Mensajes
    8

    Re: Killer Movie 3D SbS [VOSE][2011][Terror][3DTV USB][BDrip 1080p MKV][DTS][9.37 Gb]

    te pasaste hace mucho buscaba esta pelicula y no la podia encontrar

  5. pilaralejandro está desconectado *User Avanzado*
    Fecha de ingreso
    22 oct, 09
    Mensajes
    177

    Re: Killer Movie 3D SbS [VOSE][2011][Terror][3DTV USB][BDrip 1080p MKV][DTS][9.37 Gb]

    jxsusdidsids

  6. peete está desconectado *Novato reciente*
    Fecha de ingreso
    04 abr, 10
    Mensajes
    25

    Re: Killer Movie 3D SbS [VOSE][2011][Terror][3DTV USB][BDrip 1080p MKV][DTS][9.37 Gb]

    Gracias por el aporte

  7. zanahoria13 está desconectado *Novato reciente*
    Fecha de ingreso
    21 feb, 10
    Mensajes
    7

    Re: Killer Movie 3D SbS [VOSE][2011][Terror][3DTV USB][BDrip 1080p MKV][DTS][9.37 Gb]


  8. rusarubia está desconectado *Novato reciente*
    Fecha de ingreso
    07 dic, 10
    Mensajes
    8

    Re: Killer Movie 3D SbS [VOSE][2011][Terror][3DTV USB][BDrip 1080p MKV][DTS][9.37 Gb]

    Cita Iniciado por Arroyo2 Ver mensaje
    Killer Movie 3D


    TITULO EN ESPAÑA Killer Movie
    TITULO ORIGINAL Killer Movie
    WEB Solo los usuarios registrados pueden ver los links de descarga. ¡Registrate ahora, ES GRATIS!
    IDIOMA Inglés y Alemán con subtitulos en Español aparte
    AÑO 2008
    DURACIÓN 91 min.
    DIRECTOR Jeff Fisher
    GUION Jeff Fisher
    REPARTO Paul Wesley, Kaley Cuoco, Jason London, Torrey DeVitto, Al Santos, Cyia Batten, Leighton Meester.
    PRODUCTORA Movie Studio.
    GÉNERO Horror, Thriller, Misterio, Comedia.
    SINOPSIS: Un reality televisivo que se rueda en un remoto pueblo del norte se convertirá en una auténtica pesadilla cuando un asesino se presente en el lugar deseoso de acabar con los participantes y realizadores del programa.
    OPINIóN: Killer Movie es una peli dirigida en 2008 por Jeff Fisher. Debut en la dirección de pelis de este señor que hasta ahora se había dedicado a hacer carrera en el negocio de los reality-shows televisivos, asi que entiende del tema. La peli es un entretenido slasher de tratamiento clásico que transcurre en el escenario de la producción de un reality casposo típico televisivo. Jake es un joven realizador de TV que acepta hacerse cargo de un reality en un remoto pueblo de Dakota del Norte sobre el equipo local de hockey que está a punto de llegar a las finales. Al equipo se une Blanca Champion, una especie de Paris Hilton que revoluciona a todos. Lo que parece ser un trabajo fácil se transforma en una pesadilla cuando un asesino enmascarado aparece con la intención de hacer su propio reality acabando con todos los integrantes del equipo de TV y otros del pueblo. Con seguridad un slasher de los modernos pero decentes y muy distraidos, que sigue la fórmula típica del slasher clásico ochentero, aunque en un escenario más de actualidad como son esos reality-shows tan vomitivos que se hacen sobre cualquier cosa en la TV; un escenario que en realidad no es algo nuevo, ya que incluso la ultima de Halloween transcurría en un reality donde aparecía Michael Myers. Partiendo de la premisa de que en el slasher está todo dicho y poco sorprende y de que cualquiera que se rude va a tener todos los clichés de siempre, lo que hay que pedirle a una peli de estas es que distraiga y ésta lo consigue de sobra e incluso tiene ciertos momentos de brillantez, aunque no renuncia al asesino enmascarado típico de siempre, lo que le resta originalidad. Al nivel de slashers decentes recientes como Midnight Movie y demás, la peli deja abierto el final para una secuela, que no estaría mal que se rodase.

    [youtube]http://www.youtube.com/watch?v=IrzSCkAaAbQ[/youtube]
    Solo los usuarios registrados pueden ver los links de descarga. ¡Registrate ahora, ES GRATIS!


    MediaInfo
    Código:
    General
    Complete name : Killer.Movie.3D.2008.DL.1080p.3DBD.X26 4.half.SBS.z-man.mkv
    Format : Matroska
    File size : 9.37 GiB
    Duration : 1h 32mn
    Overall bit rate : 14.5 Mbps
    Encoded date : UTC 2011-03-05 20:20:00
    Writing application : mkvmerge v4.4.0 ('Die Wiederkehr') gebaut am Oct 31 2010 21:52:48
    Writing library : libebml v1.0.0 + libmatroska v1.0.0
    
    Video
    ID : 1
    Format : AVC
    Format/Info : Advanced Video Codec
    Format profile : High@L4.1
    Format settings, CABAC : Yes
    Format settings, ReFrames : 4 frames
    Muxing mode : Container profile=Unknown@0.0
    Codec ID : V_MPEG4/ISO/AVC
    Duration : 1h 32mn
    Bit rate : 13.0 Mbps
    Width : 1 920 pixels
    Height : 1 080 pixels
    Display aspect ratio : 16:9
    Frame rate : 23.976 fps
    Color space : YUV
    Chroma subsampling : 4:2:0
    Bit depth : 8 bits
    Scan type : Progressive
    Bits/(Pixel*Frame) : 0.261
    Stream size : 8.21 GiB (88%)
    Writing library : x264 core 114 r1913 5fd3dce
    
    Audio #1
    ID : 2
    Format : DTS
    Format/Info : Digital Theater Systems
    Codec ID : A_DTS
    Duration : 1h 32mn
    Bit rate mode : Constant
    Bit rate : 755 Kbps
    Channel(s) : 6 channels
    Channel positions : Front: L C R, Side: L R, LFE
    Sampling rate : 48.0 KHz
    Bit depth : 24 bits
    Compression mode : Lossy
    Stream size : 498 MiB (5%)
    Language : English
    
    Audio #2
    ID : 3
    Format : DTS
    Format/Info : Digital Theater Systems
    Codec ID : A_DTS
    Duration : 1h 32mn
    Bit rate mode : Constant
    Bit rate : 755 Kbps
    Channel(s) : 6 channels
    Channel positions : Front: L C R, Side: L R, LFE
    Sampling rate : 48.0 KHz
    Bit depth : 24 bits
    Compression mode : Lossy
    Stream size : 498 MiB (5%)
    Language : German
    Descargar Killer Movie 3D Versión VOSE:
    104 partes de 95,78 Mb mas 1 de 24,5 Mb y 5 archivos .rev divididos con Winrar.
    Servidores Intercambiables.
    hidden content may not be quoted
    muchas gracias

  9. sergi2222cs está desconectado *Novato reciente*
    Fecha de ingreso
    14 mar, 11
    Mensajes
    9

    Re: Killer Movie 3D SbS [VOSE][2011][Terror][3DTV USB][BDrip 1080p MKV][DTS][9.37 Gb]

    esta chida la peli cab

  10. horaciolc está desconectado *Novato reciente*
    Fecha de ingreso
    11 jul, 11
    Mensajes
    3

    Re: Killer Movie 3D SbS [VOSE][2011][Terror][3DTV USB][BDrip 1080p MKV][DTS][9.37 Gb]

    muchas gracias por el aporte

  11. chkf667 está desconectado *Novato reciente*
    Fecha de ingreso
    15 oct, 10
    Mensajes
    4

    Re: Killer Movie 3D SbS [VOSE][2011][Terror][3DTV USB][BDrip 1080p MKV][DTS][9.37 Gb]

    hgjfjhdffgnfgn

  12. nanditoelmen está desconectado *Novato reciente*
    Fecha de ingreso
    03 mar, 09
    Mensajes
    22

    Re: Killer Movie 3D SbS [VOSE][2011][Terror][3DTV USB][BDrip 1080p MKV][DTS][9.37 Gb]

    gracias tio a probar la peli

  13. nuestrosautografos está desconectado *Novato reciente*
    Fecha de ingreso
    31 oct, 11
    Mensajes
    1

    Re: Killer Movie 3D SbS [VOSE][2011][Terror][3DTV USB][BDrip 1080p MKV][DTS][9.37 Gb]

    Muchas Gracias

  14. cuabit está desconectado *Novato reciente*
    Fecha de ingreso
    11 feb, 09
    Mensajes
    7

    Re: Killer Movie 3D SbS [VOSE][2011][Terror][3DTV USB][BDrip 1080p MKV][DTS][9.37 Gb]

    muchas gracias haber que tal

  15. vitormaa está desconectado *Novato reciente*
    Fecha de ingreso
    05 feb, 09
    Mensajes
    9

    Re: Killer Movie 3D SbS [VOSE][2011][Terror][3DTV USB][BDrip 1080p MKV][DTS][9.37 Gb]

    esta en español
    y gracias

  16. pinogaec está desconectado *Novato reciente*
    Fecha de ingreso
    19 ago, 12
    Mensajes
    5

    Re: Killer Movie 3D SbS [VOSE][2011][Terror][3DTV USB][BDrip 1080p MKV][DTS][9.37 Gb]

    muchas gracias por la peli

  17. pinogaec está desconectado *Novato reciente*
    Fecha de ingreso
    19 ago, 12
    Mensajes
    5

    Re: Killer Movie 3D SbS [VOSE][2011][Terror][3DTV USB][BDrip 1080p MKV][DTS][9.37 Gb]

    pueden resubirla a un servidor que funcione??? esta por megaupload, gracias

  18. Leitox está desconectado *Novato Avanzado*
    Fecha de ingreso
    26 dic, 08
    Mensajes
    32

    Re: Killer Movie 3D SbS [VOSE][2011][Terror][3DTV USB][BDrip 1080p MKV][DTS][9.37 Gb]

    El servidor murió hace tiempo, puedes subir la peli a otro... Gracias
    Última edición por Leitox; 27/12/2012 a las 18:45

  19. francromero está desconectado *Novato reciente*
    Fecha de ingreso
    27 feb, 13
    Mensajes
    2

    Re: Killer Movie 3D SbS [VOSE][2011][Terror][3DTV USB][BDrip 1080p MKV][DTS][9.37 Gb]

    Cita Iniciado por Arroyo2 Ver mensaje
    Killer Movie 3D


    TITULO EN ESPAÑA Killer Movie
    TITULO ORIGINAL Killer Movie
    WEB Solo los usuarios registrados pueden ver los links de descarga. ¡Registrate ahora, ES GRATIS!
    IDIOMA Inglés y Alemán con subtitulos en Español aparte
    AÑO 2008
    DURACIÓN 91 min.
    DIRECTOR Jeff Fisher
    GUION Jeff Fisher
    REPARTO Paul Wesley, Kaley Cuoco, Jason London, Torrey DeVitto, Al Santos, Cyia Batten, Leighton Meester.
    PRODUCTORA Movie Studio.
    GÉNERO Horror, Thriller, Misterio, Comedia.
    SINOPSIS: Un reality televisivo que se rueda en un remoto pueblo del norte se convertirá en una auténtica pesadilla cuando un asesino se presente en el lugar deseoso de acabar con los participantes y realizadores del programa.
    OPINIóN: Killer Movie es una peli dirigida en 2008 por Jeff Fisher. Debut en la dirección de pelis de este señor que hasta ahora se había dedicado a hacer carrera en el negocio de los reality-shows televisivos, asi que entiende del tema. La peli es un entretenido slasher de tratamiento clásico que transcurre en el escenario de la producción de un reality casposo típico televisivo. Jake es un joven realizador de TV que acepta hacerse cargo de un reality en un remoto pueblo de Dakota del Norte sobre el equipo local de hockey que está a punto de llegar a las finales. Al equipo se une Blanca Champion, una especie de Paris Hilton que revoluciona a todos. Lo que parece ser un trabajo fácil se transforma en una pesadilla cuando un asesino enmascarado aparece con la intención de hacer su propio reality acabando con todos los integrantes del equipo de TV y otros del pueblo. Con seguridad un slasher de los modernos pero decentes y muy distraidos, que sigue la fórmula típica del slasher clásico ochentero, aunque en un escenario más de actualidad como son esos reality-shows tan vomitivos que se hacen sobre cualquier cosa en la TV; un escenario que en realidad no es algo nuevo, ya que incluso la ultima de Halloween transcurría en un reality donde aparecía Michael Myers. Partiendo de la premisa de que en el slasher está todo dicho y poco sorprende y de que cualquiera que se rude va a tener todos los clichés de siempre, lo que hay que pedirle a una peli de estas es que distraiga y ésta lo consigue de sobra e incluso tiene ciertos momentos de brillantez, aunque no renuncia al asesino enmascarado típico de siempre, lo que le resta originalidad. Al nivel de slashers decentes recientes como Midnight Movie y demás, la peli deja abierto el final para una secuela, que no estaría mal que se rodase.

    [youtube]http://www.youtube.com/watch?v=IrzSCkAaAbQ[/youtube]
    Solo los usuarios registrados pueden ver los links de descarga. ¡Registrate ahora, ES GRATIS!


    MediaInfo
    Código:
    General
    Complete name : Killer.Movie.3D.2008.DL.1080p.3DBD.X26 4.half.SBS.z-man.mkv
    Format : Matroska
    File size : 9.37 GiB
    Duration : 1h 32mn
    Overall bit rate : 14.5 Mbps
    Encoded date : UTC 2011-03-05 20:20:00
    Writing application : mkvmerge v4.4.0 ('Die Wiederkehr') gebaut am Oct 31 2010 21:52:48
    Writing library : libebml v1.0.0 + libmatroska v1.0.0
    
    Video
    ID : 1
    Format : AVC
    Format/Info : Advanced Video Codec
    Format profile : High@L4.1
    Format settings, CABAC : Yes
    Format settings, ReFrames : 4 frames
    Muxing mode : Container profile=Unknown@0.0
    Codec ID : V_MPEG4/ISO/AVC
    Duration : 1h 32mn
    Bit rate : 13.0 Mbps
    Width : 1 920 pixels
    Height : 1 080 pixels
    Display aspect ratio : 16:9
    Frame rate : 23.976 fps
    Color space : YUV
    Chroma subsampling : 4:2:0
    Bit depth : 8 bits
    Scan type : Progressive
    Bits/(Pixel*Frame) : 0.261
    Stream size : 8.21 GiB (88%)
    Writing library : x264 core 114 r1913 5fd3dce
    
    Audio #1
    ID : 2
    Format : DTS
    Format/Info : Digital Theater Systems
    Codec ID : A_DTS
    Duration : 1h 32mn
    Bit rate mode : Constant
    Bit rate : 755 Kbps
    Channel(s) : 6 channels
    Channel positions : Front: L C R, Side: L R, LFE
    Sampling rate : 48.0 KHz
    Bit depth : 24 bits
    Compression mode : Lossy
    Stream size : 498 MiB (5%)
    Language : English
    
    Audio #2
    ID : 3
    Format : DTS
    Format/Info : Digital Theater Systems
    Codec ID : A_DTS
    Duration : 1h 32mn
    Bit rate mode : Constant
    Bit rate : 755 Kbps
    Channel(s) : 6 channels
    Channel positions : Front: L C R, Side: L R, LFE
    Sampling rate : 48.0 KHz
    Bit depth : 24 bits
    Compression mode : Lossy
    Stream size : 498 MiB (5%)
    Language : German
    Descargar Killer Movie 3D Versión VOSE:
    104 partes de 95,78 Mb mas 1 de 24,5 Mb y 5 archivos .rev divididos con Winrar.
    Servidores Intercambiables.
    hidden content may not be quoted
    gracias por el enlace

  20. francromero está desconectado *Novato reciente*
    Fecha de ingreso
    27 feb, 13
    Mensajes
    2

    Re: Killer Movie 3D SbS [VOSE][2011][Terror][3DTV USB][BDrip 1080p MKV][DTS][9.37 Gb]

    gracias por el aporte

  21. alexmisle está desconectado *Novato reciente*
    Fecha de ingreso
    25 mar, 13
    Mensajes
    2

    Re: Killer Movie 3D SbS [VOSE][2011][Terror][3DTV USB][BDrip 1080p MKV][DTS][9.37 Gb]

    buen aporte amigo gracias

Temas similares

  1. Respuestas: 100
    Último mensaje: 05/06/2013, 15:18
  2. Respuestas: 79
    Último mensaje: 21/03/2013, 01:40
  3. The Child's Eye 3D SBS | VOSE | 2010 | Terror | 3DTV USB | 1080p MKV | DTS | 5,15 Gb
    Por Arroyo2 en el foro Peliculas en HD-DVD, BluRay, HDTV Gratis
    Respuestas: 17
    Último mensaje: 10/01/2013, 02:42
  4. Respuestas: 24
    Último mensaje: 31/03/2012, 21:31
  5. Respuestas: 3
    Último mensaje: 22/01/2011, 17:34

Etiquetas para este tema