Resultados 1 al 2 de 2

La Llave De Sarah 2010 BluRay 1080p Mkv x264 Español(Esp)AC3/Ingles,DTS Sub Drama


Descargar La Llave De Sarah 2010 BluRay 1080p Mkv x264 Español(Esp)AC3/Ingles,DTS Sub Drama Gratis 1 link Full La Llave De Sarah 2010 BluRay 1080p Mkv x264 Español(Esp)AC3/Ingles,DTS Sub Drama por Mediafire con Crack, Serial, KeyGen Full Torrent

  1. Avatar de Cadagoto
    Cadagoto está desconectado *Dios del FORO*
    Fecha de ingreso
    22 sep, 09
    Ubicación
    En El Mejor Lugar De La Web ...La Mía :)
    Mensajes
    4,582

    La Llave De Sarah 2010 BluRay 1080p Mkv x264 Español(Esp)AC3/Ingles,DTS Sub Drama







    La Llave De Sarah 2010 BluRay 1080p Mkv x264 Español(Esp)AC3/Ingles,DTS Sub Drama



    Ficha Tecnica

    TÍTULO ORIGINAL: Elle s'appelait Sarah
    AÑO: 2010
    DURACIÓN: 111 min.
    PAÍS:[Francia]
    DIRECTOR: Gilles Paquet-Brenner
    GUIÓN: Gilles Paquet-Brenner, Serge Joncour (Novela: Tatiana de Rosnay)
    MÚSICA: Max Richter
    FOTOGRAFÍA: Pascal Ridao
    REPARTO: Kristin Scott Thomas, Mélusine Mayance, Niels Arestrup, Frédéric Pierrot, Aidan Quinn
    PRODUCTORA: Hugo Productions
    GÉNERO: Drama | Nazismo


    Informacion

    Código:
    General
    Complete name : 	files/Llave.de.Sarah.1080p.CadagotoHD.mkv
    Format : 	Matroska
    File size : 	8.28 GiB
    Duration : 	1h 46mn
    Overall bit rate : 	11.2 Mbps
    Movie name : 	La llave de Sarah 1080P
    Encoded date : 	UTC 2011-03-08 00:30:08
    Writing application : 	mkvmerge v2.1.0 ('Another Place To Fall') built on Aug 19 2007 13:40:07
    Writing library : 	libebml v0.7.7 + libmatroska v0.8.1
    
    Video
    ID : 	1
    Format : 	AVC
    Format/Info : 	Advanced Video Codec
    Format profile : 	High@L4.1
    Format settings, CABAC : 	Yes
    Format settings, ReFrames : 	5 frames
    Muxing mode : 	Container profile=Unknown@4.1
    Codec ID : 	V_MPEG4/ISO/AVC
    Duration : 	1h 46mn
    Bit rate : 	9 194 Kbps
    Width : 	1 920 pixels
    Height : 	816 pixels
    Display aspect ratio : 	2.35:1
    Frame rate : 	25.000 fps
    Color space : 	YUV
    Chroma subsampling : 	4:2:0
    Bit depth : 	8 bits
    Scan type : 	Progressive
    Bits/(Pixel*Frame) : 	0.235
    Stream size : 	6.66 GiB (80%)
    Title : 	La llave de Sarah 1080P Castellano
    
    Language : 	French
    
    Audio #1
    ID : 	2
    Format : 	AC-3
    Format/Info : 	Audio Coding 3
    Mode extension : 	CM (complete main)
    Codec ID : 	A_AC3
    Duration : 	1h 46mn
    Bit rate mode : 	Constant
    Bit rate : 	448 Kbps
    Channel(s) : 	6 channels
    Channel positions : 	Front: L C R, Side: L R, LFE
    Sampling rate : 	48.0 KHz
    Bit depth : 	16 bits
    Video delay : 	32ms
    Stream size : 	341 MiB (4%)
    Title : 	Audio Castellano 
    Language : 	Spanish
    
    Audio #2
    ID : 	3
    Format : 	DTS
    Format/Info : 	Digital Theater Systems
    Codec ID : 	A_DTS
    Duration : 	1h 46mn
    Bit rate mode : 	Constant
    Bit rate : 	1 510 Kbps
    Channel(s) : 	6 channels
    Channel positions : 	Front: L C R, Side: L R, LFE
    Sampling rate : 	48.0 KHz
    Bit depth : 	24 bits
    Stream size : 	1.12 GiB (14%)
    Title : 	Audio DTS Frances 
    Language : 	French
    
    Text
    ID : 	4
    Format : 	UTF-8
    Codec ID : 	S_TEXT/UTF8
    Codec ID/Info : 	UTF-8 Plain Text
    Title : 	Subtitulos Frances -
    SINOPSIS

    París, julio de 1942: la policía francesa se lleva a Sarah, una niña de 10 años, y a toda su familia en una redada puerta a puerta en la que arrestan a multitud de familias judías en plena noche. Desesperada por proteger a su hermano pequeño, Sarah lo encierra en un armario del dormitorio, su pequeño escondite secreto, y le promete volver en cuanto les liberen. Sesenta y siete años más tarde: la historia de Sarah se mezcla con la de Julia Jarmond, una periodista estadounidense que investiga la redada. Durante su investigación, Julia descubre un rastro de secretos que ligan la vida de Sarah a la suya, y la llenan de preguntar sobre su propio futuro sentimental.


    Capturas












    Descargar

    [spoiler]


    Contenido Oculto Este post contiene información oculta, debes contestar el post o hacer click en el botón 'Gracias' para ver el contenido.


    Si Los Links no estan On-Line , avisarme asi tratare de reponerlos , por el hilo del tema o por privado..... enviame el link del tema ..Gracias!



    [/spoiler]



    Aportar Toma Buen Tiempo ...............Agradecer No Te Cuesta Nada !



    CadagotoHD.Com
    Visita Mi Blog Con Mis Aportes (Firma Permitida Por Admin Warez)



  2. fguerrero está desconectado *Novato Avanzado*
    Fecha de ingreso
    05 may, 09
    Mensajes
    37

    Re: La Llave De Sarah 2010 BluRay 1080p Mkv x264 Español(Esp)AC3/Ingles,DTS Sub Drama

    graciasssssssssssssssssssss

Temas similares

  1. Hombres De Honor 2000 BluRay 1080p Mkv x264 Español(Esp)AC3/Ingles,DTS Sub Drama
    Por Cadagoto en el foro Peliculas en HD-DVD, BluRay, HDTV Gratis
    Respuestas: 13
    Último mensaje: 17/04/2014, 09:43
  2. Imparable 2010 BluRay 1080p Mkv x264 Español(Esp)AC3/Ingles,DTS Sub Esp Thriller
    Por Cadagoto en el foro Peliculas en HD-DVD, BluRay, HDTV Gratis
    Respuestas: 14
    Último mensaje: 12/11/2011, 10:28
  3. Caza A La Espía 2010 BluRay 1080p Mkv x264 Español(Esp),AC3/Ingles,AC3 Sub Drama
    Por Cadagoto en el foro Peliculas en HD-DVD, BluRay, HDTV Gratis
    Respuestas: 4
    Último mensaje: 24/07/2011, 13:09
  4. La llave de Sarah [DVDScreener][Drama][Español][2010]
    Por Caloriana en el foro Peliculas DVD Screener Gratis
    Respuestas: 13
    Último mensaje: 19/03/2011, 08:52
  5. La llave de sarah [DVDScreener][Español][Drama][2010]
    Por djrufus en el foro Peliculas DVD Screener Gratis
    Respuestas: 0
    Último mensaje: 04/02/2011, 12:16