Información

Partes: 3 en Hotfile y 1 en FileServe
Servidor: FileServe y Hotfile
Tamaño: 987 Mb
Formato: .Avi
Calidad: Buena
Duración: 1:30:15

SINOPSIS: Boudica fue una reina guerrera de Britania, un pueblo
que habitaba el este de la isla de Gran Bretaña, en torno a
la comarca de Norfolk, que acaudilló a los icenos y a otras tribus
bretonas, incluyendo a sus vecinos los trinovantes, durante
el mayor levantamiento contra la ocupación del Imperio romano
entre los años 60 y 61 a.C., durante el reinado del emperador Nerón.



Director: Patrick Taulère
Guión: Sarah Kass
Género: Documentales / Biografía
Nacionalidad: EE.UU
Duración: 120 minutos
Año: 2006
Reparto: Charlotte Comer, Simona Cuciurianu
Danny Green, Radu Andrei Micu
Bronagh O'Mara, Adrian Pintea
Calificación moral: Todos los públicos

General
Format : AVI
Format/Info : Audio Video Interleave
File size : 987 MiB
Duration : 1h 30mn
Overall bit rate : 1 530 Kbps
Writing application : SpanishDub 1.5
Writing library : VirtualDub build 14328/release

Video
ID : 0
Format : MPEG-4 Visual
Format profile : Simple@L1
Format settings, BVOP : No
Format settings, QPel : No
Format settings, GMC : No warppoints
Format settings, Matrix : Default (H.263)
Codec ID : DIVX
Codec ID/Info : Project Mayo
Codec ID/Hint : DivX 4
Duration : 1h 30mn
Bit rate : 1 392 Kbps
Width : 480 pixels
Height : 360 pixels
Display aspect ratio : 4:3
Frame rate : 25.000 fps
Color space : YUV
Chroma subsampling : 4:2:0
Bit depth : 8 bits
Scan type : Progressive
Bits/(Pixel*Frame) : 0.322
Stream size : 899 MiB (91%)
Writing library : Lavc51.7.0

Audio
ID : 1
Format : MPEG Audio
Format version : Version 1
Format profile : Layer 3
Mode : Joint stereo
Mode extension : MS Stereo
Codec ID : 55
Codec ID/Hint : MP3
Duration : 1h 30mn
Bit rate mode : Constant
Bit rate : 128 Kbps
Channel(s) : 2 channels
Sampling rate : 48.0 KHz
Stream size : 82.6 MiB (8%)
Alignment : Split accross interleaves
Interleave, duration : 40 ms (1.00 video frame)
Interleave, preload duration : 500 ms




Descargas

Hotfile

Parte 1 -
Solo los usuarios registrados pueden ver los links de descarga. ¡Registrate ahora, ES GRATIS!

Parte 2 -
Solo los usuarios registrados pueden ver los links de descarga. ¡Registrate ahora, ES GRATIS!

Parte 3 -
Solo los usuarios registrados pueden ver los links de descarga. ¡Registrate ahora, ES GRATIS!

FileServe

1 Link

Solo los usuarios registrados pueden ver los links de descarga. ¡Registrate ahora, ES GRATIS!