Resultados 1 al 16 de 16
Like Tree4Likes
  • 4 Post By LeGeNN

Tiana y el Sapo [2009][BDRip 720p x264][Animacion][AC3(es.ES);DTS(en.US)][Subs]


Descargar Tiana y el Sapo [2009][BDRip 720p x264][Animacion][AC3(es.ES);DTS(en.US)][Subs] Gratis 1 link Full Tiana y el Sapo [2009][BDRip 720p x264][Animacion][AC3(es.ES);DTS(en.US)][Subs] por Mediafire con Crack, Serial, KeyGen Full Torrent

  1. LeGeNN está desconectado *User Avanzado*
    Fecha de ingreso
    09 feb, 10
    Mensajes
    126

    Tiana y el Sapo [2009][BDRip 720p x264][Animacion][AC3(es.ES);DTS(en.US)][Subs]










    Título: Tiana y el sapo
    Título original: The Princess and the Frog
    País: USA
    Estreno en USA: 11/12/2009
    Estreno en España: 05/02/2010
    Productora: Walt Disney Pictures
    Director: Ron Clements, John Musker
    Guión: Ron Clements, John Musker, Rob Edwards
    Reparto: (Voces de) Anika Noni Rose, Bruno Campos, Keith David, Jim Cummings, Jenifer Lewis, Michael-Leon Wooley, John Goodman, Terrence Howard, Oprah Winfrey, Jennifer Cody
    Clasificación: Para todos los públicos





    La historia transcurre en Nueva Orleans. Una joven llamada Tiana, que sueña con abrir su propio restaurante, un Príncipe convertido en sapo que desesperadamente quiere recuperar su forma humana y un beso que les lleva a una divertida aventura a través de los paisajes misteriosos de Louisiana.

    Notas:
    "Tiana y el sapo" supone el regreso de Disney a la animación hecha a mano y a los musicales clásicos después de 5 años. Los creadores de "La sirenita" y "Aladdin" nos traen un cuento clásico con un giro moderno.






    Formato: BDRip 720p x264
    Audio: AC3 (Castellano). DTS (Inglés)
    Tamaño: 4,59 GB

    Descomprimir con Winrar

    [SPOILER]
    Código:
    General
    Complete name                    : Tiana y el Sapo [2009][BDRip 720p x264][Animacion][AC3(es.ES);DTS(en.US)][Subs][LeGeN].mkv
    Format                           : Matroska
    File size                        : 4.59 GiB
    Duration                         : 1h 37mn
    Overall bit rate                 : 6 747 Kbps
    Movie name                       : Tiana y el Sapo BDRip 1080p x264 DTS/AC3 LeGeN
    Encoded date                     : UTC 2010-06-03 03:43:52
    Writing application              : mkvmerge v3.3.0 ('Language') built on Mar 24 2010 14:59:24
    Writing library                  : libebml v0.8.0 + libmatroska v0.9.0
    Cover                            : Yes / Yes
    
    Video
    ID                               : 1
    Format                           : AVC
    Format/Info                      : Advanced Video Codec
    Format profile                   : High@L4.1
    Format settings, CABAC           : Yes
    Format settings, ReFrames        : 7 frames
    Muxing mode                      : Container profile=Unknown@4.1
    Codec ID                         : V_MPEG4/ISO/AVC
    Duration                         : 1h 37mn
    Bit rate                         : 4 719 Kbps
    Nominal bit rate                 : 4 850 Kbps
    Width                            : 1 280 pixels
    Height                           : 720 pixels
    Display aspect ratio             : 16:9
    Frame rate                       : 23.976 fps
    Resolution                       : 8 bits
    Colorimetry                      : 4:2:0
    Scan type                        : Progressive
    Bits/(Pixel*Frame)               : 0.214
    Stream size                      : 3.21 GiB (70%)
    Title                            : Tiana y el Sapo 2009 Animacion
    Writing library                  : x264 core 84 r1416 fcf70c2
    Encoding settings                : cabac=1 / ref=8 / deblock=1:-3:-3 / analyse=0x3:0x133 / me=esa / subme=10 / psy=1 / psy_rd=0.9:0.0 / mixed_ref=1 / me_range=24 / chroma_me=1 / trellis=2 / 8x8dct=1 / cqm=0 / deadzone=21,11 / fast_pskip=0 / chroma_qp_offset=-2 / threads=3 / sliced_threads=0 / nr=0 / decimate=0 / mbaff=0 / constrained_intra=0 / bframes=8 / b_pyramid=1 / b_adapt=2 / b_bias=0 / direct=3 / wpredb=1 / wpredp=2 / keyint=250 / keyint_min=15 / scenecut=40 / intra_refresh=0 / rc=2pass / mbtree=0 / bitrate=4850 / ratetol=1.0 / qcomp=0.60 / qpmin=9 / qpmax=23 / qpstep=4 / cplxblur=20.0 / qblur=0.5 / ip_ratio=1.40 / pb_ratio=1.30 / 00000000000000000000000000000000000000
    Language                         : Spanish
    
    Audio #1
    ID                               : 2
    Format                           : DTS
    Format/Info                      : Digital Theater Systems
    Codec ID                         : A_DTS
    Duration                         : 1h 37mn
    Bit rate mode                    : Constant
    Bit rate                         : 1 510 Kbps
    Channel(s)                       : 6 channels
    Channel positions                : Front: L C R, Side: L R, LFE
    Sampling rate                    : 48.0 KHz
    Resolution                       : 24 bits
    Stream size                      : 1.03 GiB (22%)
    Title                            : DTS Inglés LeGeN
    Language                         : English
    
    Audio #2
    ID                               : 3
    Format                           : AC-3
    Format/Info                      : Audio Coding 3
    Codec ID                         : A_AC3
    Duration                         : 1h 37mn
    Bit rate mode                    : Constant
    Bit rate                         : 384 Kbps
    Channel(s)                       : 6 channels
    Channel positions                : Front: L C R, Side: L R, LFE
    Sampling rate                    : 48.0 KHz
    Stream size                      : 268 MiB (6%)
    Title                            : AC3 Castellano LeGeN
    Language                         : Spanish
    
    Text #1
    ID                               : 4
    Format                           : ASS
    Codec ID                         : S_TEXT/ASS
    Codec ID/Info                    : Advanced Sub Station Alpha
    Title                            : Subs Castellano LeGeN
    Language                         : Spanish
    
    Text #2
    ID                               : 5
    Format                           : ASS
    Codec ID                         : S_TEXT/ASS
    Codec ID/Info                    : Advanced Sub Station Alpha
    Title                            : Subs Inglés LeGeN
    Language                         : English
    [/SPOILER]






    LINKS INTERCAMBIABLES






    Contenido Oculto Este post contiene información oculta, debes contestar el post o hacer click en el botón 'Gracias' para ver el contenido.








    viggen, lola35, Beitarip and 1 others like this.



  2. ptptpt está desconectado *Novato Avanzado*
    Fecha de ingreso
    13 abr, 10
    Mensajes
    62

    Re: Tiana y el Sapo [2009][BDRip 720p x264][Animacion][AC3(es.ES);DTS(en.US)][Subs]

    muchas gracias

  3. jfalma está desconectado *Novato Avanzado*
    Fecha de ingreso
    31 dic, 09
    Mensajes
    35

    Re: Tiana y el Sapo [2009][BDRip 720p x264][Animacion][AC3(es.ES);DTS(en.US)][Subs]

    Graciasssss

  4. Mari_ska está desconectado *Novato Avanzado*
    Fecha de ingreso
    30 jun, 11
    Mensajes
    41

    Re: Tiana y el Sapo [2009][BDRip 720p x264][Animacion][AC3(es.ES);DTS(en.US)][Subs]

    graciasssssss

  5. Davv9 está desconectado *Novato reciente*
    Fecha de ingreso
    20 nov, 11
    Mensajes
    4

    Re: Tiana y el Sapo [2009][BDRip 720p x264][Animacion][AC3(es.ES);DTS(en.US)][Subs]

    Gracias!! ^^

  6. rac1966 está desconectado *Novato Avanzado*
    Fecha de ingreso
    26 ene, 09
    Mensajes
    43

    Re: Tiana y el Sapo [2009][BDRip 720p x264][Animacion][AC3(es.ES);DTS(en.US)][Subs]

    gracias por el aporte

  7. borjas002 está desconectado *Novato reciente*
    Fecha de ingreso
    25 ene, 12
    Mensajes
    4

    Re: Tiana y el Sapo [2009][BDRip 720p x264][Animacion][AC3(es.ES);DTS(en.US)][Subs]

    gracias

  8. cayetano24 está desconectado *Novato reciente*
    Fecha de ingreso
    16 feb, 12
    Mensajes
    11

    Re: Tiana y el Sapo [2009][BDRip 720p x264][Animacion][AC3(es.ES);DTS(en.US)][Subs]

    graciassssss

  9. Beitarip está desconectado *Novato reciente*
    Fecha de ingreso
    29 feb, 12
    Mensajes
    3

    Re: Tiana y el Sapo [2009][BDRip 720p x264][Animacion][AC3(es.ES);DTS(en.US)][Subs]

    Muchisimas gracias la andaba buscando en alta definicion

  10. viggen está desconectado *Novato reciente*
    Fecha de ingreso
    02 feb, 09
    Mensajes
    7

    Re: Tiana y el Sapo [2009][BDRip 720p x264][Animacion][AC3(es.ES);DTS(en.US)][Subs]

    Gracias

  11. mochi11 está desconectado *Novato reciente*
    Fecha de ingreso
    15 ago, 12
    Mensajes
    10

    Re: Tiana y el Sapo [2009][BDRip 720p x264][Animacion][AC3(es.ES);DTS(en.US)][Subs]

    Muchas Gracias

  12. rlobos está desconectado *Novato reciente*
    Fecha de ingreso
    03 may, 12
    Mensajes
    10

    Re: Tiana y el Sapo [2009][BDRip 720p x264][Animacion][AC3(es.ES);DTS(en.US)][Subs]

    gracias gracias gracias gracias gracias gracias gracias gracias gracias gracias gracias gracias gracias gracias gracias gracias gracias gracias

  13. toctopulus está desconectado *Novato reciente*
    Fecha de ingreso
    27 oct, 12
    Mensajes
    1

    Re: Tiana y el Sapo [2009][BDRip 720p x264][Animacion][AC3(es.ES);DTS(en.US)][Subs]

    Que conste que solo digo gracias porque quiero ver los enlaces...

  14. charitiyo está desconectado *Novato Avanzado*
    Fecha de ingreso
    22 jun, 11
    Mensajes
    86

    Re: Tiana y el Sapo [2009][BDRip 720p x264][Animacion][AC3(es.ES);DTS(en.US)][Subs]

    grtaciaaaaaaaaaaaaaaaaaaaas

  15. mirna17 está desconectado *User Avanzado*
    Fecha de ingreso
    28 jul, 09
    Mensajes
    147

    Re: Tiana y el Sapo [2009][BDRip 720p x264][Animacion][AC3(es.ES);DTS(en.US)][Subs]

    Graciassssssssssssssssssssssssssssssssss

  16. asisin2 está desconectado *Novato reciente*
    Fecha de ingreso
    07 mar, 11
    Mensajes
    10

    Re: Tiana y el Sapo [2009][BDRip 720p x264][Animacion][AC3(es.ES);DTS(en.US)][Subs]

    Gracias por el porte

Temas similares

  1. Tiana y el sapo [DVD-Rip][Español][Animacion]
    Por edbelas en el foro Peliculas DVDRip en Castellano
    Respuestas: 29
    Último mensaje: 22/10/2012, 23:46
  2. [Cartelera] Tiana Y El Sapo [BRSCREENER LINE DUBBED][Castellano][Animacion][2009][HF]
    Por desfalko en el foro Peliculas en HD-DVD, BluRay, HDTV Gratis
    Respuestas: 56
    Último mensaje: 06/07/2011, 19:48
  3. Respuestas: 7
    Último mensaje: 06/07/2011, 19:47
  4. Tiana y el sapo [Español][DVDrip][animacion][2009][MU,HF,SG,UT,MP]
    Por piroju38 en el foro Peliculas DVDRip en Castellano
    Respuestas: 7
    Último mensaje: 30/06/2011, 17:44
  5. Up in The Air [2009][BDRip 720p x264][Comedia][DTS(en.US);AC3(es.ES)][Subs]
    Por LeGeNN en el foro Peliculas en HD-DVD, BluRay, HDTV Gratis
    Respuestas: 4
    Último mensaje: 05/04/2011, 23:25