Resultados 1 al 3 de 3
Like Tree1Likes
  • 1 Post By lagartish

Ghost rider 2: Espiritu de venganza (2012)[Fantastico][Bdrip.m-720p.Dual.AC3.subs for


Descargar Ghost rider 2: Espiritu de venganza (2012)[Fantastico][Bdrip.m-720p.Dual.AC3.subs for Gratis 1 link Full Ghost rider 2: Espiritu de venganza (2012)[Fantastico][Bdrip.m-720p.Dual.AC3.subs for por Mediafire con Crack, Serial, KeyGen Full Torrent

  1. Avatar de lagartish
    lagartish está desconectado *Dios del FORO*
    Fecha de ingreso
    17 abr, 10
    Mensajes
    1,207

    Ghost rider 2: Espiritu de venganza (2012)[Fantastico][Bdrip.m-720p.Dual.AC3.subs for




    TÍTULO ORIGINAL Ghost Rider: Spirit of Vengeance (Ghost Rider 2)
    AÑO 2012
    DURACIÓN 95 min.
    PAÍS
    DIRECTOR Mark Neveldine, Brian Taylor
    GUIÓN Mark Neveldine, Brian Taylor (Historia: David S. Goyer)
    MÚSICA David Sardy
    FOTOGRAFÍA Brandon Trost
    REPARTO Nicolas Cage, Idris Elba, Violante Placido, Fergus Riordan, Ciarán Hinds, Christopher Lambert, Johnny Whitworth
    PRODUCTORA Columbia Pictures / Hyde Park Entertainment / Imagenation Abu Dhabi FZ
    GÉNERO Fantástico. Acción. Thriller | Superhéroes. Cómic. Marvel Comics. Secuela
    SINOPSIS Nueva adaptación del cómic "El motorista fantasma". Con el fin de controlar sus deseos de venganza, Johnny Blaze (Nicolas Cage), que ve sus poderes como una maldición, vive apartado del mundo y sin relacionarse con nadie, pero acaba siendo localizado por el monje Moreau, que necesita su ayuda para buscar a Nadya y a su hijo Danny antes de que los encuentre Roarke, un viejo conocido de Blaze. (FILMAFFINITY)
    CRÍTICAS ----------------------------------------
    "Normalmente me gustaría la idea de ver la cara de Nicolas Cage arder, pero, desgraciadamente, 'Ghost Rider: Spirit of Vengeance', no es un documental (...) Su Johnny Blaze parece menos torturado que torturador, con el público como víctima (...) Puntuación: * (sobre 4)" (Kyle Smith: New York Post) XD


    Mediainfo:
    Código:
    Complete name : El motorista fantasma 2.Bdrip,m-720p.Dual.x.lagartish.mkv 
    Format : Matroska 
    File size : 2.53 GiB 
    Duration : 1h 35mn 
    Overall bit rate : 3 790 Kbps 
    Movie name : El motorista x lagartish 
    Encoded date : UTC 2012-05-27 10:17:45 
    Writing application : mkvmerge v4.8.0 ('I Got The...') creado el May 23 2011 22:30:05 
    Writing library : libebml v1.2.0 + libmatroska v1.1.0 
    Video
    ID : 1 
    Format : AVC 
    Format/Info : Advanced Video Codec 
    Format profile : High@L4.1 
    Format settings, CABAC : Yes 
    Format settings, ReFrames : 8 frames 
    Codec ID : V_MPEG4/ISO/AVC 
    Duration : 1h 35mn 
    Bit rate : 2 700 Kbps 
    Width : 1 280 pixels 
    Height : 534 pixels 
    Display aspect ratio : 2.40:1 
    Original display aspect ratio : 2.40:1 
    Frame rate : 23.976 fps 
    Color space : YUV 
    Chroma subsampling : 4:2:0 
    Bit depth : 8 bits 
    Scan type : Progressive 
    Bits/(Pixel*Frame) : 0.165 
    Stream size : 1.75 GiB (69%) 
    Encoding settings : cabac=1 / ref=9 / deblock=1:-3:-3 / analyse=0x3:0x113 / me=umh / subme=10 / psy=1 / psy_rd=1.00:0.00 / mixed_ref=1 / me_range=16 / chroma_me=1 / trellis=2 / 8x8dct=1 / cqm=0 / deadzone=21,11 / fast_pskip=1 / chroma_qp_offset=-2 / threads=12 / lookahead_threads=2 / sliced_threads=0 / nr=0 / decimate=1 / interlaced=0 / bluray_compat=0 / constrained_intra=0 / bframes=3 / b_pyramid=1 / b_adapt=1 / b_bias=0 / direct=1 / weightb=1 / open_gop=0 / weightp=2 / keyint=250 / keyint_min=23 / scenecut=40 / intra_refresh=0 / rc=2pass / mbtree=0 / bitrate=2700 / ratetol=1.0 / qcomp=0.60 / qpmin=0 / qpmax=69 / qpstep=4 / cplxblur=20.0 / qblur=0.5 / ip_ratio=1.40 / pb_ratio=1.30 / aq=1:0.80 
    Language : English 
    Audio #1
    ID : 2 
    Format : AC-3 
    Format/Info : Audio Coding 3 
    Mode extension : CM (complete main) 
    Codec ID : A_AC3 
    Duration : 1h 35mn 
    Bit rate mode : Constant 
    Bit rate : 640 Kbps 
    Channel(s) : 6 channels 
    Channel positions : Front: L C R, Side: L R, LFE 
    Sampling rate : 48.0 KHz 
    Bit depth : 16 bits 
    Compression mode : Lossy 
    Stream size : 437 MiB (17%) 
    Language : Spanish 
    Audio #2
    ID : 3 
    Format : AC-3 
    Format/Info : Audio Coding 3 
    Mode extension : CM (complete main) 
    Codec ID : A_AC3 
    Duration : 1h 35mn 
    Bit rate mode : Constant 
    Bit rate : 448 Kbps 
    Channel(s) : 6 channels 
    Channel positions : Front: L C R, Side: L R, LFE 
    Sampling rate : 48.0 KHz 
    Bit depth : 16 bits 
    Compression mode : Lossy 
    Stream size : 306 MiB (12%) 
    Language : English 
    Text #1
    ID : 4 
    Format : UTF-8 
    Codec ID : S_TEXT/UTF8 
    Codec ID/Info : UTF-8 Plain Text 
    Title : Forzados esp 
    Language : Spanish 
    Text #2
    ID : 5 
    Format : UTF-8 
    Codec ID : S_TEXT/UTF8 
    Codec ID/Info : UTF-8 Plain Text 
    Language : Spanish 
    Text #3
    ID : 6 
    Format : UTF-8 
    Codec ID : S_TEXT/UTF8 
    Codec ID/Info : UTF-8 Plain Text 
    Title : Forzados ingles 
    Language : English
    Contenedor: mkv
    Tamaño: 2.53 Gb
    Tasa de Bits total 3790 kbps
    Resolucion: 1280x544
    Audio 1: AC3 640 kbps castellano
    Audio 2: AC3 448 kbps ingles
    Links: 7 de 323 Mb y 1 de 322 Mb
    Archivos de recuperacion: 3 rev
    Subs: Español e ingles completos y forzados

    Archivos intercambiables

    Descarga por Jumbofiles, Netload, Freakshare, Filefactory

    Contenido Oculto Este post contiene información oculta, debes contestar el post o hacer click en el botón 'Gracias' para ver el contenido.
    pacmix likes this.



  2. ebouquet está desconectado *Novato reciente*
    Fecha de ingreso
    11 mar, 09
    Mensajes
    9

    Re: Ghost rider 2: Espiritu de venganza (2012)[Fantastico][Bdrip.m-720p.Dual.AC3.subs

    gracias por el aporte

  3. pacmix está desconectado *Novato reciente*
    Fecha de ingreso
    07 jul, 12
    Mensajes
    1

    Re: Ghost rider 2: Espiritu de venganza (2012)[Fantastico][Bdrip.m-720p.Dual.AC3.subs

    gracias por la pelicula

Temas similares

  1. Ghost Rider: Espíritu de venganza [DvdRip, Castellano, Acción/Fantástico, 2012]
    Por cusiMimi en el foro Peliculas DVDRip en Castellano
    Respuestas: 0
    Último mensaje: 27/05/2012, 11:16
  2. Ghost Rider: Espíritu de venganza [2012] [BR Scr] [Castellano] [MF-RS-JF-PL] [720p]
    Por jesuars en el foro Peliculas DVDRip en Español Latino
    Respuestas: 0
    Último mensaje: 26/05/2012, 18:21
  3. Ghost Rider: Espíritu de venganza [2012]
    Por RubenRea en el foro Peliculas DVDRip en Castellano
    Respuestas: 0
    Último mensaje: 04/05/2012, 15:13
  4. Ghost Rider: Espíritu de venganza [HDTV-Screener 720p][Castellano][Ficcion][2012]
    Por ju4nnx97 en el foro Peliculas en HD-DVD, BluRay, HDTV Gratis
    Respuestas: 1
    Último mensaje: 17/04/2012, 16:06
  5. Respuestas: 3
    Último mensaje: 15/03/2012, 00:13