Resultados 1 al 2 de 2

Un golpe de altura (2011)[Comedia, robos][Bdrip.m-720p.Dual.dts esp.AC3 eng.subs forz


Descargar Un golpe de altura (2011)[Comedia, robos][Bdrip.m-720p.Dual.dts esp.AC3 eng.subs forz Gratis 1 link Full Un golpe de altura (2011)[Comedia, robos][Bdrip.m-720p.Dual.dts esp.AC3 eng.subs forz por Mediafire con Crack, Serial, KeyGen Full Torrent

  1. Avatar de lagartish
    lagartish está desconectado *Dios del FORO*
    Fecha de ingreso
    17 abr, 10
    Mensajes
    1,207

    Un golpe de altura (2011)[Comedia, robos][Bdrip.m-720p.Dual.dts esp.AC3 eng.subs forz



    TÍTULO ORIGINAL Tower Heist
    AÑO 2011
    DURACIÓN 104 min.
    PAÍS
    DIRECTOR Brett Ratner
    GUIÓN Noah Baumbach, Bill Collage, Adam Cooper, Leslie Dixon, Russell Gewirtz, Ted Griffin, Jeff Nathanson, Rawson Marshall Thurber
    MÚSICA Christophe Beck
    FOTOGRAFÍA Dante Spinotti
    REPARTO Ben Stiller, Téa Leoni, Eddie Murphy, Matthew Broderick, Casey Affleck, Michael Peña, Alan Alda, Gabourey Sidibe, Judd Hirsch, Marcia Jean Kurtz, Danielle McKee
    PRODUCTORA Imagine Entertainment / Rat Entertainment
    WEB OFICIAL Solo los usuarios registrados pueden ver los links de descarga. ¡Registrate ahora, ES GRATIS!
    GÉNERO Comedia. Acción | Crimen. Robos & Atracos. Día de Acción de Gracias
    SINOPSIS Un multimillonario sin escrúpulos (Alan Alda) ha estafado a sus empleados dejándolos sin blanca, así que éstos, encabezados por el gerente del edificio (Ben Stiller) en el que vive, deciden vengarse intentando atracar su vivienda, un apartamento de lujo situado en el ático de uno de los rascacielos de la ciudad. (FILMAFFINITY)
    CRÍTICAS ----------------------------------------
    "No es una gran película de robos por un montón de razones, empezando por la estupidez del plan y la imposibilidad de estos personajes de tener éxito en nada más complejo que ponerse en fila (...) Puntuación: **1/2 (sobre 4)" (Roger Ebert: Chicago Sun-Times)
    ----------------------------------------
    "Una desvergonzada y muy bien hecha película de atracos (...) El guión está lleno de ingeniosos gags" (David Edelstein: New York Magazine)
    ----------------------------------------
    "Tower Heist juega con una estupenda premisa que busca más el entretenimiento que un interés real por los temas económicos actuales (...) Animada, concisa y bien interpretada" (Todd McCarthy: The Hollywood Reporter)


    Mediainfo:
    Código:
    Complete name : Un golpe de altura.Bdrip.m-720p.Dual.x.lagartish.mkv 
    Format : Matroska 
    File size : 2.76 GiB 
    Duration : 1h 44mn 
    Overall bit rate : 3 783 Kbps 
    Movie name : Un golpe de altura x lagartish 
    Encoded date : UTC 2012-02-28 13:05:48 
    Writing application : mkvmerge v4.8.0 ('I Got The...') creado el May 23 2011 22:30:05 
    Writing library : libebml v1.2.0 + libmatroska v1.1.0 
    Video
    ID : 1 
    Format : AVC 
    Format/Info : Advanced Video Codec 
    Format profile : High@L4.1 
    Format settings, CABAC : Yes 
    Format settings, ReFrames : 5 frames 
    Format settings, GOP : M=4, N=29 
    Codec ID : V_MPEG4/ISO/AVC 
    Duration : 1h 44mn 
    Bit rate : 2 565 Kbps 
    Width : 1 280 pixels 
    Height : 536 pixels 
    Display aspect ratio : 2.35:1 
    Frame rate : 23.976 fps 
    Color space : YUV 
    Chroma subsampling : 4:2:0 
    Bit depth : 8 bits 
    Scan type : Progressive 
    Bits/(Pixel*Frame) : 0.156 
    Stream size : 1.83 GiB (66%) 
    Language : English 
    Audio #1
    ID : 2 
    Format : DTS 
    Format/Info : Digital Theater Systems 
    Codec ID : A_DTS 
    Duration : 1h 44mn 
    Bit rate mode : Constant 
    Bit rate : 754 Kbps 
    Channel(s) : 6 channels 
    Channel positions : Front: L C R, Side: L R, LFE 
    Sampling rate : 48.0 KHz 
    Bit depth : 24 bits 
    Compression mode : Lossy 
    Delay relative to video : 11ms 
    Stream size : 564 MiB (20%) 
    Language : Spanish 
    Audio #2
    ID : 3 
    Format : AC-3 
    Format/Info : Audio Coding 3 
    Mode extension : CM (complete main) 
    Codec ID : A_AC3 
    Duration : 1h 44mn 
    Bit rate mode : Constant 
    Bit rate : 448 Kbps 
    Channel(s) : 6 channels 
    Channel positions : Front: L C R, Side: L R, LFE 
    Sampling rate : 48.0 KHz 
    Bit depth : 16 bits 
    Compression mode : Lossy 
    Stream size : 335 MiB (12%) 
    Language : English 
    Text #1
    ID : 4 
    Format : UTF-8 
    Codec ID : S_TEXT/UTF8 
    Codec ID/Info : UTF-8 Plain Text 
    Title : Forzados 
    Language : Spanish 
    Text #2
    ID : 5 
    Format : UTF-8 
    Codec ID : /UTF8 
    Codec ID/Info : UTF-8 Plain Text 
    Language : Spanish 
    Text #3
    ID : 6 
    Format : UTF-8 
    Codec ID : S_TEXT/UTF8 
    Codec ID/Info : UTF-8 Plain Text 
    Language : English
    Contenedor: mkv
    Tamaño: 2.76 Gb
    Tasa de Bits total 3783 kbps
    Resolucion: 1280x536
    Audio 1: dts 754 kbps castellano
    Audio 2: AC3 448 kbps ingles
    Links: 14 de 188 Mb y 1 de 122 Mb
    Archivos de recuperacion: 4 rev
    Subs: Español forzados y completos e ingles

    Archivos intercambiables

    Descarga por Mediafire, Uploaded.to., Netload, Bitshare y Shareonline.biz



    Contenido Oculto Este post contiene información oculta, debes contestar el post o hacer click en el botón 'Gracias' para ver el contenido.





  2. serieadicta está desconectado *Novato reciente*
    Fecha de ingreso
    01 feb, 12
    Mensajes
    13

    Re: Un golpe de altura (2011)[Comedia, robos][Bdrip.m-720p.Dual.dts esp.AC3 eng.subs

    Muuuuchas gracias!! =)

Temas similares

  1. Un golpe de Altura[2011][BDRip 720p Mkv][AC3 5.1(Es-Esp)(Es-Lat)DTS(Es-Esp)(En-Us)Sub
    Por Cadagoto en el foro Peliculas en HD-DVD, BluRay, HDTV Gratis
    Respuestas: 1
    Último mensaje: 29/02/2012, 14:44
  2. La cosa (2011)[Terror,fantastica][Bdrip.720p.Dual.AC3.subs forz]
    Por lagartish en el foro Peliculas en HD-DVD, BluRay, HDTV Gratis
    Respuestas: 3
    Último mensaje: 04/02/2012, 23:20
  3. Contagio (2011)[Thriller][Bdrip.m-720p.Dual.AC3.subs forz]
    Por lagartish en el foro Peliculas en HD-DVD, BluRay, HDTV Gratis
    Respuestas: 0
    Último mensaje: 24/01/2012, 15:37
  4. La deuda (2011)[Thriller,espionaje][Bdrip.720p.Trial.AC3.subs forz][dts dual]
    Por lagartish en el foro Peliculas en HD-DVD, BluRay, HDTV Gratis
    Respuestas: 1
    Último mensaje: 23/01/2012, 20:57