<<<:::Die.Hard.2.Die.Harder.1990.BluRay.720p.x264.DTS:::>>>











Código:
Code:
\Die Hard 2 (1990)
  124 min  -  Action | Crime | Thriller   -  4 July 1990 (USA)
Ratings: 7.0/10 from 97,418 users   
Reviews: 243 user | 76 critic

John McClane is forced to battle mercenaries who seize control of an airport's communications and threaten to cause plane crashes if their demands are not met.

Director: Renny Harlin
Writers: Walter Wager (novel), Steven E. de Souza (screenplay), 
Stars: Bruce Willis, William Atherton and Bonnie Bedelia


Código:
http://www.imdb.com/title/tt0099423/





Código:
Code:
General
Unique ID                        : 198572164278774388973370104890718697915 (0x95639B943C010A3C88FC5C8A448039BB)
Complete name                    : G:\Die.Hard.2.Die.Harder.1990.BluRay.720p.x264.DTS-WiKi\Die.Hard.2.Die.Harder.1990.BluRay.720p.x264.DTS-WiKi\Die.Hard.2.Die.Harder.1990.BluRay.720p.x264.DTS-WiKi.mkv
Format                           : Matroska
Format version                   : Version 1
File size                        : 6.56 GiB
Duration                         : 2h 3mn
Overall bit rate                 : 7 610 Kbps
Encoded date                     : UTC 2009-02-25 10:38:13
Writing application              : mkvmerge v2.2.0 ('Turn It On Again') built on Mar  4 2008 12:58:26
Writing library                  : libebml v0.7.7 + libmatroska v0.8.1

Video
ID                               : 1
Format                           : AVC
Format/Info                      : Advanced Video Codec
Format profile                   : High@L4.1
Format settings, CABAC           : Yes
Format settings, ReFrames        : 8 frames
Format settings, GOP             : N=1
Codec ID                         : V_MPEG4/ISO/AVC
Duration                         : 2h 3mn
Bit rate                         : 6 097 Kbps
Width                            : 1 280 pixels
Height                           : 540 pixels
Display aspect ratio             : 2.35:1
Frame rate                       : 23.976 fps
Color space                      : YUV
Chroma subsampling               : 4:2:0
Bit depth                        : 8 bits
Scan type                        : Progressive
Bits/(Pixel*Frame)               : 0.368
Stream size                      : 5.13 GiB (78%)
Writing library                  : x264 core 65 r1029M cb3c213
Encoding settings                : cabac=1 / ref=8 / deblock=1:-2:-1 / analyse=0x3:0x113 / me=umh / subme=6 / psy_rd=1.0:0.0 / mixed_ref=1 / me_range=16 / chroma_me=1 / trellis=1 / 8x8dct=1 / cqm=0 / deadzone=21,11 / chroma_qp_offset=-2 / threads=6 / nr=0 / decimate=1 / mbaff=0 / bframes=16 / b_pyramid=1 / b_adapt=1 / b_bias=0 / direct=3 / wpredb=1 / keyint=250 / keyint_min=25 / scenecut=40(pre) / rc=2pass / bitrate=6097 / ratetol=1.0 / qcomp=0.60 / qpmin=10 / qpmax=51 / qpstep=4 / cplxblur=20.0 / qblur=0.5 / ip_ratio=1.40 / pb_ratio=1.30 / aq=1:1.00
Language                         : English

Audio
ID                               : 2
Format                           : DTS
Format/Info                      : Digital Theater Systems
Codec ID                         : A_DTS
Duration                         : 2h 3mn
Bit rate mode                    : Constant
Bit rate                         : 1 510 Kbps
Channel(s)                       : 6 channels
Channel positions                : Front: L C R, Side: L R, LFE
Sampling rate                    : 48.0 KHz
Bit depth                        : 24 bits
Compression mode                 : Lossy
Stream size                      : 1.30 GiB (20%)
Language                         : English





Código:
http://www.filejungle.com/f/cmN9rM/Die.Hard.2.Die.Harder.1990.BluRay.720p.x264.DTS-WiKi.part01.rar
http://www.filejungle.com/f/WWy3BN/Die.Hard.2.Die.Harder.1990.BluRay.720p.x264.DTS-WiKi.part02.rar
http://www.filejungle.com/f/nkfSDT/Die.Hard.2.Die.Harder.1990.BluRay.720p.x264.DTS-WiKi.part03.rar
http://www.filejungle.com/f/jad7B5/Die.Hard.2.Die.Harder.1990.BluRay.720p.x264.DTS-WiKi.part04.rar
http://www.filejungle.com/f/qgNTC9/Die.Hard.2.Die.Harder.1990.BluRay.720p.x264.DTS-WiKi.part05.rar
http://www.filejungle.com/f/yxCg24/Die.Hard.2.Die.Harder.1990.BluRay.720p.x264.DTS-WiKi.part06.rar
http://www.filejungle.com/f/XB4Jzj/Die.Hard.2.Die.Harder.1990.BluRay.720p.x264.DTS-WiKi.part07.rar
http://www.filejungle.com/f/exafCh/Die.Hard.2.Die.Harder.1990.BluRay.720p.x264.DTS-WiKi.part08.rar
http://www.filejungle.com/f/B26FyG/Die.Hard.2.Die.Harder.1990.BluRay.720p.x264.DTS-WiKi.part09.rar
http://www.filejungle.com/f/X2CrqU/Die.Hard.2.Die.Harder.1990.BluRay.720p.x264.DTS-WiKi.part10.rar
http://www.filejungle.com/f/NShy6h/Die.Hard.2.Die.Harder.1990.BluRay.720p.x264.DTS-WiKi.part11.rar
http://www.filejungle.com/f/cHUpnb/Die.Hard.2.Die.Harder.1990.BluRay.720p.x264.DTS-WiKi.part12.rar
http://www.filejungle.com/f/V5TmmF/Die.Hard.2.Die.Harder.1990.BluRay.720p.x264.DTS-WiKi.part13.rar
http://www.filejungle.com/f/syDjFa/Die.Hard.2.Die.Harder.1990.BluRay.720p.x264.DTS-WiKi.part14.rar
http://www.filejungle.com/f/7NQSrY/Die.Hard.2.Die.Harder.1990.BluRay.720p.x264.DTS-WiKi.part15.rar