Resultados 1 al 5 de 5

In Time [2011][BRRip][XviD-AC3][Aud.Latino][Ciencia Ficcion]


Descargar In Time [2011][BRRip][XviD-AC3][Aud.Latino][Ciencia Ficcion] Gratis 1 link Full In Time [2011][BRRip][XviD-AC3][Aud.Latino][Ciencia Ficcion] por Mediafire con Crack, Serial, KeyGen Full Torrent

  1. RSX. está desconectado *User Pro*
    Fecha de ingreso
    14 ene, 12
    Mensajes
    423

    In Time [2011][BRRip][XviD-AC3][Aud.Latino][Ciencia Ficcion]




    TÍTULO ORIGINAL: In Time
    AÑO: 2011
    DURACIÓN: 109 min.
    PAÍS: USA
    DIRECTOR: Andrew Niccol
    GUIÓN: Andrew Niccol
    MÚSICA: Craig Armstrong
    FOTOGRAFÍA: Roger Deakins
    REPARTO: Justin Timberlake, Amanda Seyfried, Vincent Kartheiser, Cillian Murphy, Johnny Galecki, Olivia Wilde, Alex Pettyfer, Matt Bomer, Rachel Roberts, Elena Satine, Yaya DaCosta
    PRODUCTORA: New Regency / Strike Entertainment
    GÉNERO: Ciencia ficción. Thriller. Acción | Thriller futurista. Crimen. Robos & Atracos


    Ambientada en una sociedad futura. El hallazgo de una fórmula contra el envejecimiento trae consigo no sólo superpoblación, sino también la transformación del tiempo en moneda de cambio que permite sufragar tanto lujos como necesidades. Los ricos pueden vivir para siempre, pero los demás tendrán que negociar cada minuto de vida, y los pobres mueren jóvenes. Después de conseguir, por casualidad, una inmensa cantidad de tiempo Will Salas (Justin Timberlake), un joven obrero, será perseguido por unos policías corruptos conocidos como “los guardianes del tiempo”. En su huida Will tomará una rehén (Amanda Seyfried), una joven de una familia adinerada.


    Código:
    Format                                   : AVI
    Format/Info                              : Audio Video Interleave
    File size                                : 1.55 GiB
    Duration                                 : 1h 49mn
    Overall bit rate                         : 2 027 Kbps
    
    Video
    ID                                       : 0
    Format                                   : MPEG-4 Visual
    Format profile                           : Advanced Simple@L5
    Format settings, BVOP                    : 3
    Format settings, QPel                    : No
    Format settings, GMC                     : No warppoints
    Format settings, Matrix                  : Default (MPEG)
    Codec ID                                 : XVID
    Codec ID/Hint                            : XviD
    Duration                                 : 1h 49mn
    Bit rate                                 : 1 826 Kbps
    Width                                    : 720 pixels
    Height                                   : 304 pixels
    Display aspect ratio                     : 2.35:1
    Frame rate                               : 23.976 fps
    Color space                              : YUV
    Chroma subsampling                       : 4:2:0
    Bit depth                                : 8 bits
    Scan type                                : Progressive
    Compression mode                         : Lossy
    Bits/(Pixel*Frame)                       : 0.348
    Stream size                              : 1.39 GiB (90%)
    
    Audio
    ID                                       : 1
    Format                                   : AC-3
    Format/Info                              : Audio Coding 3
    Format profile                           : Dolby Digital
    Mode extension                           : CM (complete main)
    Codec ID                                 : 2000
    Duration                                 : 1h 49mn
    Bit rate mode                            : Constant
    Bit rate                                 : 192 Kbps
    Channel(s)                               : 2 channels
    Channel positions                        : Front: L R
    Sampling rate                            : 48.0 KHz
    Bit depth                                : 16 bits
    Compression mode                         : Lossy
    Delay relative to video                  : 2s 0ms
    Stream size                              : 150 MiB (9%)
    Alignment                                : Split accross interleaves
    Interleave, duration                     : 42 ms (1.00 video frame)
    Interleave, preload duration             : 500 ms








    Contenido Oculto Este post contiene información oculta, debes contestar el post o hacer click en el botón 'Gracias' para ver el contenido.




    Contenido Oculto Este post contiene información oculta, debes contestar el post o hacer click en el botón 'Gracias' para ver el contenido.



  2. Avatar de Warez
    Warez está desconectado Administradores
    Fecha de ingreso
    18 sep, 07
    Ubicación
    Zona Warez
    Mensajes
    62,376

    Re: In Time [2011][BRRip][XviD-AC3][Aud.Latino][Ciencia Ficcion]

    Gracias por el aporte, Publicado en el Home

  3. an1el_33 está desconectado *Novato Avanzado*
    Fecha de ingreso
    26 ago, 11
    Mensajes
    34

    Re: In Time [2011][BRRip][XviD-AC3][Aud.Latino][Ciencia Ficcion]

    gracias........

  4. nicolasrb está desconectado *Dios del FORO*
    Fecha de ingreso
    17 feb, 09
    Mensajes
    1,873

    Re: In Time [2011][BRRip][XviD-AC3][Aud.Latino][Ciencia Ficcion]

    Bajando.............

  5. mondriant está desconectado *Novato Avanzado*
    Fecha de ingreso
    24 may, 08
    Mensajes
    38

    Re: In Time [2011][BRRip][XviD-AC3][Aud.Latino][Ciencia Ficcion]

    graciasssssss

Temas similares

  1. Sunshine (2007) BRRip XviD AVI [Thriller/Ciencia Ficcion][Audio Latino 5.1]
    Por xion172 en el foro Peliculas en HD-DVD, BluRay, HDTV Gratis
    Respuestas: 83
    Último mensaje: 31/03/2014, 01:00
  2. In Time NTSC DVDR Latino [Ciencia Ficcion][2011]
    Por sombra_blanca en el foro Moviez Peliculas
    Respuestas: 8
    Último mensaje: 16/04/2012, 04:59
  3. In Time (2011) [DVDRip]LINK CAIDOS
    Por Ch4m4k0 en el foro Peliculas DVDRip en Español Latino
    Respuestas: 25
    Último mensaje: 24/02/2012, 07:09
  4. Super 8 [2011][BRRip][Español Latino][XviD][Ciencia Ficción][FLS/WU/UL]
    Por PatroxWare en el foro Peliculas en HD-DVD, BluRay, HDTV Gratis
    Respuestas: 12
    Último mensaje: 29/10/2011, 14:11
  5. Super 8 [2011] Audio Latino BRRIP XVID[Ciencia Ficcion]
    Por frijol72 en el foro Peliculas en HD-DVD, BluRay, HDTV Gratis
    Respuestas: 1
    Último mensaje: 28/10/2011, 17:16