Resultados 1 al 13 de 13
Like Tree6Likes
  • 5 Post By Ch4m4k0
  • 1 Post By thecrapula

Transformers 3: [3D SBS][HDTV 1080p][AC3(Castellano)(Latino);True-HD(ENG)][SUbs]


Descargar Transformers 3: [3D SBS][HDTV 1080p][AC3(Castellano)(Latino);True-HD(ENG)][SUbs] Gratis 1 link Full Transformers 3: [3D SBS][HDTV 1080p][AC3(Castellano)(Latino);True-HD(ENG)][SUbs] por Mediafire con Crack, Serial, KeyGen Full Torrent

  1. Avatar de Ch4m4k0
    Ch4m4k0 está desconectado *Dios del FORO*
    Fecha de ingreso
    28 oct, 08
    Mensajes
    3,839

    Transformers 3: [3D SBS][HDTV 1080p][AC3(Castellano)(Latino);True-HD(ENG)][SUbs]






    En esta tercera entrega de la saga Transformers, los Autobots y los Decepticons se ven envueltos en una peligrosa carrera espacial en la Tierra entre los EE.UU. y Rusia, donde un acontecimiento amenaza con provocar una guerra tan grande que ni los propios transformers puede que sean capaces de salvar nuestro planeta. Y una vez más, como casi siempre, Sam Witwicky se encuentra involuntariamente en medio del conflicto.



    TÍTULO ORIGINAL Transformers: Dark of the Moon (Transformers 3)
    AÑO 2011
    DURACIÓN 157 min. Trailers/Vídeos
    [b]PAÍS [Estados Unidos] Sección visual
    DIRECTOR Michael Bay
    GUIÓN Ehren Kruger
    MÚSICA Steve Jablonsky
    FOTOGRAFÍA Amir M. Mokri
    REPARTO Shia LaBeouf, Rosie Huntington-Whiteley, John Malkovich, Josh Duhamel, Patrick Dempsey, John Turturro, Frances McDormand, Ken Jeong, Peter Cullen, Tyrese Gibson, Kevin Dunn, Alan Tudyk, Lester Speight
    PRODUCTORA DreamWorks SKG / Paramount Pictures / Hasbro
    GÉNERO Ciencia ficción. Acción | Secuela. 3-D. Robots. Extraterrestres



    Código:
    General
    Format                                   : Matroska
    Format version                           : Version 2
    File size                                : 15.2 GiB
    Duration                                 : 2h 34mn
    Overall bit rate mode                    : Variable
    Overall bit rate                         : 14.1 Mbps
    Movie name                               : Chamako - Transformers: El lado oscuro de la Luna 2011 1080p 3D
    Encoded date                             : UTC 2012-01-03 23:36:41
    Writing application                      : mkvmerge v5.2.0 ('I can't explain') built on Dec 18 2011 18:12:03
    Writing library                          : libebml v1.2.3 + libmatroska v1.3.0
    
    Video
    ID                                       : 1
    Format                                   : AVC
    Format/Info                              : Advanced Video Codec
    Format profile                           : High@L4.1
    Format settings, CABAC                   : Yes
    Format settings, ReFrames                : 4 frames
    Muxing mode                              : Header stripping
    Codec ID                                 : V_MPEG4/ISO/AVC
    Duration                                 : 2h 34mn
    Width                                    : 1 920 pixels
    Height                                   : 1 080 pixels
    Display aspect ratio                     : 16:9
    Frame rate                               : 23.976 fps
    Color space                              : YUV
    Chroma subsampling                       : 4:2:0
    Bit depth                                : 8 bits
    Scan type                                : Progressive
    Title                                    : Transformers: El lado oscuro de la Luna 2011 1080p 3D HDTV - Chamako
    Writing library                          : x264 core 120 r2120 0c7dab9
    Encoding settings                        : cabac=1 / ref=4 / deblock=1:-3:-3 / analyse=0x3:0x113 / me=umh / subme=7 / psy=1 / psy_rd=1.00:0.15 / mixed_ref=1 / me_range=16 / chroma_me=1 / trellis=1 / 8x8dct=1 / cqm=0 / deadzone=21,11 / fast_pskip=1 / chroma_qp_offset=-3 / threads=18 / sliced_threads=0 / nr=0 / decimate=1 / interlaced=0 / bluray_compat=0 / constrained_intra=0 / bframes=3 / b_pyramid=2 / b_adapt=1 / b_bias=0 / direct=3 / weightb=1 / open_gop=0 / weightp=2 / keyint=250 / keyint_min=23 / scenecut=40 / intra_refresh=0 / rc_lookahead=40 / rc=crf / mbtree=1 / crf=18.0 / qcomp=0.60 / qpmin=10 / qpmax=69 / qpstep=4 / ip_ratio=1.40 / aq=1:1.00
    Language                                 : Spanish
    Default                                  : No
    Forced                                   : No
    
    Audio #1
    ID                                       : 2
    Format                                   : AC-3
    Format/Info                              : Audio Coding 3
    Mode extension                           : CM (complete main)
    Muxing mode                              : Header stripping
    Codec ID                                 : A_AC3
    Duration                                 : 2h 34mn
    Bit rate mode                            : Constant
    Bit rate                                 : 640 Kbps
    Channel(s)                               : 6 channels
    Channel positions                        : Front: L C R, Side: L R, LFE
    Sampling rate                            : 48.0 KHz
    Bit depth                                : 16 bits
    Compression mode                         : Lossy
    Delay relative to video                  : 12ms
    Stream size                              : 707 MiB (5%)
    Title                                    : Castellano AC3
    Language                                 : Spanish
    Default                                  : No
    Forced                                   : No
    
    Audio #2
    ID                                       : 3
    Format                                   : AC-3
    Format/Info                              : Audio Coding 3
    Mode extension                           : CM (complete main)
    Muxing mode                              : Header stripping
    Codec ID                                 : A_AC3
    Duration                                 : 2h 34mn
    Bit rate mode                            : Constant
    Bit rate                                 : 640 Kbps
    Channel(s)                               : 6 channels
    Channel positions                        : Front: L C R, Side: L R, LFE
    Sampling rate                            : 48.0 KHz
    Bit depth                                : 16 bits
    Compression mode                         : Lossy
    Delay relative to video                  : 12ms
    Stream size                              : 707 MiB (5%)
    Title                                    : Latino AC3
    Language                                 : Spanish
    Default                                  : Yes
    Forced                                   : Yes
    
    Audio #3
    ID                                       : 4
    Format                                   : TrueHD
    Codec ID                                 : A_TRUEHD
    Duration                                 : 2h 34mn
    Bit rate mode                            : Variable
    Maximum bit rate                         : 6 048 Kbps
    Channel(s)                               : 8 channels
    Channel positions                        : Front: L C R, Side: L R, Back: L R, LFE
    Sampling rate                            : 48.0 KHz
    Compression mode                         : Lossless
    Title                                    : English True HD
    Language                                 : English
    Default                                  : No
    Forced                                   : No
    
    Text #1
    ID                                       : 5
    Format                                   : VobSub
    Muxing mode                              : zlib
    Codec ID                                 : S_VOBSUB
    Codec ID/Info                            : The same subtitle format used on DVDs
    Title                                    : Subtitulos Castellano 3D Forzados
    Language                                 : Spanish
    Default                                  : Yes
    Forced                                   : No
    
    Text #2
    ID                                       : 6
    Format                                   : UTF-8
    Codec ID                                 : S_TEXT/UTF8
    Codec ID/Info                            : UTF-8 Plain Text
    Title                                    : Subtitulos Castellano Completos
    Language                                 : Spanish
    Default                                  : No
    Forced                                   : No
    
    Text #3
    ID                                       : 7
    Format                                   : PGS
    Muxing mode                              : zlib
    Codec ID                                 : S_HDMV/PGS
    Codec ID/Info                            : The same subtitle format used on BDs/HD-DVDs
    Title                                    : Subtitulos Ingles Completos
    Language                                 : English
    Default                                  : No
    Forced                                   : No
    
    Text #4
    ID                                       : 8
    Format                                   : PGS
    Muxing mode                              : zlib
    Codec ID                                 : S_HDMV/PGS
    Codec ID/Info                            : The same subtitle format used on BDs/HD-DVDs
    Title                                    : Subtitulos Frances Completos
    Language                                 : French
    Default                                  : No
    Forced                                   : No
    
    Text #5
    ID                                       : 9
    Format                                   : PGS
    Muxing mode                              : zlib
    Codec ID                                 : S_HDMV/PGS
    Codec ID/Info                            : The same subtitle format used on BDs/HD-DVDs
    Title                                    : Subtitulos Portugues Completos








    Instrucciones de Descarga

    Añadir el link al Jdownloader, y empieza a descargar del host que mas te agrade

    35 Partes Intercambiables + 2 Archivos REV


    Contenido Oculto Este post contiene información oculta, debes contestar el post o hacer click en el botón 'Gracias' para ver el contenido.

    CONTRASEÑA: Chamako
    LA C "Mayuscula" lo demás minúscula, no copiar y pegar, escribir manualmente

    Si Algun link cae solo enviame un MP con el link del post y lo resubiré

    josezv, KIRIOX, roddan1973 and 2 others like this.
    La Contraseña para todos mis archivos subidos es: chamako (todo minuscula)

    Solo los usuarios registrados pueden ver los links de descarga. ¡Registrate ahora, ES GRATIS!



  2. BRUNOGC23 está desconectado *User Avanzado*
    Fecha de ingreso
    04 nov, 11
    Mensajes
    194

    Re: Transformers 3: [3D SBS][HDTV 1080p][AC3(Castellano)(Latino);True-HD(ENG)][SUbs]

    A verrrrrrrrrrrrrrr

  3. byronlp está desconectado *Novato Avanzado*
    Fecha de ingreso
    06 feb, 08
    Mensajes
    34

    Re: Transformers 3: [3D SBS][HDTV 1080p][AC3(Castellano)(Latino);True-HD(ENG)][SUbs]

    gracia por el aporte

  4. medinar81 está desconectado *Novato reciente*
    Fecha de ingreso
    26 feb, 12
    Mensajes
    1

    Re: Transformers 3: [3D SBS][HDTV 1080p][AC3(Castellano)(Latino);True-HD(ENG)][SUbs]

    espero q todo este bien

  5. dremian está desconectado *User Avanzado*
    Fecha de ingreso
    24 mar, 11
    Mensajes
    155

    Re: Transformers 3: [3D SBS][HDTV 1080p][AC3(Castellano)(Latino);True-HD(ENG)][SUbs]

    graciassssssssssssssssssssssss

  6. KIRIOX está desconectado *Novato reciente*
    Fecha de ingreso
    26 ene, 09
    Mensajes
    22

    Re: Transformers 3: [3D SBS][HDTV 1080p][AC3(Castellano)(Latino);True-HD(ENG)][SUbs]

    Graciax men.............

  7. roddan1973 está desconectado *Novato reciente*
    Fecha de ingreso
    16 abr, 09
    Mensajes
    10

    Re: Transformers 3: [3D SBS][HDTV 1080p][AC3(Castellano)(Latino);True-HD(ENG)][SUbs]

    Cita Iniciado por Ch4m4k0 Ver mensaje




    En esta tercera entrega de la saga Transformers, los Autobots y los Decepticons se ven envueltos en una peligrosa carrera espacial en la Tierra entre los EE.UU. y Rusia, donde un acontecimiento amenaza con provocar una guerra tan grande que ni los propios transformers puede que sean capaces de salvar nuestro planeta. Y una vez más, como casi siempre, Sam Witwicky se encuentra involuntariamente en medio del conflicto.



    TÍTULO ORIGINAL Transformers: Dark of the Moon (Transformers 3)
    AÑO 2011
    DURACIÓN 157 min. Trailers/Vídeos
    [b]PAÍS [Estados Unidos] Sección visual
    DIRECTOR Michael Bay
    GUIÓN Ehren Kruger
    MÚSICA Steve Jablonsky
    FOTOGRAFÍA Amir M. Mokri
    REPARTO Shia LaBeouf, Rosie Huntington-Whiteley, John Malkovich, Josh Duhamel, Patrick Dempsey, John Turturro, Frances McDormand, Ken Jeong, Peter Cullen, Tyrese Gibson, Kevin Dunn, Alan Tudyk, Lester Speight
    PRODUCTORA DreamWorks SKG / Paramount Pictures / Hasbro
    GÉNERO Ciencia ficción. Acción | Secuela. 3-D. Robots. Extraterrestres



    Código:
    General
    Format                                   : Matroska
    Format version                           : Version 2
    File size                                : 15.2 GiB
    Duration                                 : 2h 34mn
    Overall bit rate mode                    : Variable
    Overall bit rate                         : 14.1 Mbps
    Movie name                               : Chamako - Transformers: El lado oscuro de la Luna 2011 1080p 3D
    Encoded date                             : UTC 2012-01-03 23:36:41
    Writing application                      : mkvmerge v5.2.0 ('I can't explain') built on Dec 18 2011 18:12:03
    Writing library                          : libebml v1.2.3 + libmatroska v1.3.0
    
    Video
    ID                                       : 1
    Format                                   : AVC
    Format/Info                              : Advanced Video Codec
    Format profile                           : High@L4.1
    Format settings, CABAC                   : Yes
    Format settings, ReFrames                : 4 frames
    Muxing mode                              : Header stripping
    Codec ID                                 : V_MPEG4/ISO/AVC
    Duration                                 : 2h 34mn
    Width                                    : 1 920 pixels
    Height                                   : 1 080 pixels
    Display aspect ratio                     : 16:9
    Frame rate                               : 23.976 fps
    Color space                              : YUV
    Chroma subsampling                       : 4:2:0
    Bit depth                                : 8 bits
    Scan type                                : Progressive
    Title                                    : Transformers: El lado oscuro de la Luna 2011 1080p 3D HDTV - Chamako
    Writing library                          : x264 core 120 r2120 0c7dab9
    Encoding settings                        : cabac=1 / ref=4 / deblock=1:-3:-3 / analyse=0x3:0x113 / me=umh / subme=7 / psy=1 / psy_rd=1.00:0.15 / mixed_ref=1 / me_range=16 / chroma_me=1 / trellis=1 / 8x8dct=1 / cqm=0 / deadzone=21,11 / fast_pskip=1 / chroma_qp_offset=-3 / threads=18 / sliced_threads=0 / nr=0 / decimate=1 / interlaced=0 / bluray_compat=0 / constrained_intra=0 / bframes=3 / b_pyramid=2 / b_adapt=1 / b_bias=0 / direct=3 / weightb=1 / open_gop=0 / weightp=2 / keyint=250 / keyint_min=23 / scenecut=40 / intra_refresh=0 / rc_lookahead=40 / rc=crf / mbtree=1 / crf=18.0 / qcomp=0.60 / qpmin=10 / qpmax=69 / qpstep=4 / ip_ratio=1.40 / aq=1:1.00
    Language                                 : Spanish
    Default                                  : No
    Forced                                   : No
    
    Audio #1
    ID                                       : 2
    Format                                   : AC-3
    Format/Info                              : Audio Coding 3
    Mode extension                           : CM (complete main)
    Muxing mode                              : Header stripping
    Codec ID                                 : A_AC3
    Duration                                 : 2h 34mn
    Bit rate mode                            : Constant
    Bit rate                                 : 640 Kbps
    Channel(s)                               : 6 channels
    Channel positions                        : Front: L C R, Side: L R, LFE
    Sampling rate                            : 48.0 KHz
    Bit depth                                : 16 bits
    Compression mode                         : Lossy
    Delay relative to video                  : 12ms
    Stream size                              : 707 MiB (5%)
    Title                                    : Castellano AC3
    Language                                 : Spanish
    Default                                  : No
    Forced                                   : No
    
    Audio #2
    ID                                       : 3
    Format                                   : AC-3
    Format/Info                              : Audio Coding 3
    Mode extension                           : CM (complete main)
    Muxing mode                              : Header stripping
    Codec ID                                 : A_AC3
    Duration                                 : 2h 34mn
    Bit rate mode                            : Constant
    Bit rate                                 : 640 Kbps
    Channel(s)                               : 6 channels
    Channel positions                        : Front: L C R, Side: L R, LFE
    Sampling rate                            : 48.0 KHz
    Bit depth                                : 16 bits
    Compression mode                         : Lossy
    Delay relative to video                  : 12ms
    Stream size                              : 707 MiB (5%)
    Title                                    : Latino AC3
    Language                                 : Spanish
    Default                                  : Yes
    Forced                                   : Yes
    
    Audio #3
    ID                                       : 4
    Format                                   : TrueHD
    Codec ID                                 : A_TRUEHD
    Duration                                 : 2h 34mn
    Bit rate mode                            : Variable
    Maximum bit rate                         : 6 048 Kbps
    Channel(s)                               : 8 channels
    Channel positions                        : Front: L C R, Side: L R, Back: L R, LFE
    Sampling rate                            : 48.0 KHz
    Compression mode                         : Lossless
    Title                                    : English True HD
    Language                                 : English
    Default                                  : No
    Forced                                   : No
    
    Text #1
    ID                                       : 5
    Format                                   : VobSub
    Muxing mode                              : zlib
    Codec ID                                 : S_VOBSUB
    Codec ID/Info                            : The same subtitle format used on DVDs
    Title                                    : Subtitulos Castellano 3D Forzados
    Language                                 : Spanish
    Default                                  : Yes
    Forced                                   : No
    
    Text #2
    ID                                       : 6
    Format                                   : UTF-8
    Codec ID                                 : S_TEXT/UTF8
    Codec ID/Info                            : UTF-8 Plain Text
    Title                                    : Subtitulos Castellano Completos
    Language                                 : Spanish
    Default                                  : No
    Forced                                   : No
    
    Text #3
    ID                                       : 7
    Format                                   : PGS
    Muxing mode                              : zlib
    Codec ID                                 : S_HDMV/PGS
    Codec ID/Info                            : The same subtitle format used on BDs/HD-DVDs
    Title                                    : Subtitulos Ingles Completos
    Language                                 : English
    Default                                  : No
    Forced                                   : No
    
    Text #4
    ID                                       : 8
    Format                                   : PGS
    Muxing mode                              : zlib
    Codec ID                                 : S_HDMV/PGS
    Codec ID/Info                            : The same subtitle format used on BDs/HD-DVDs
    Title                                    : Subtitulos Frances Completos
    Language                                 : French
    Default                                  : No
    Forced                                   : No
    
    Text #5
    ID                                       : 9
    Format                                   : PGS
    Muxing mode                              : zlib
    Codec ID                                 : S_HDMV/PGS
    Codec ID/Info                            : The same subtitle format used on BDs/HD-DVDs
    Title                                    : Subtitulos Portugues Completos








    Instrucciones de Descarga

    Añadir el link al Jdownloader, y empieza a descargar del host que mas te agrade

    35 Partes Intercambiables + 2 Archivos REV


    hidden content may not be quoted
    CONTRASEÑA: Chamako
    LA C "Mayuscula" lo demás minúscula, no copiar y pegar, escribir manualmente

    Si Algun link cae solo enviame un MP con el link del post y lo resubiré

    excelente apote

  8. cronaldooo está desconectado *Novato reciente*
    Fecha de ingreso
    28 abr, 12
    Mensajes
    11

    Re: Transformers 3: [3D SBS][HDTV 1080p][AC3(Castellano)(Latino);True-HD(ENG)][SUbs]

    hhhhhhhhhhhhhhhhhhhhhhhhhhhhh

  9. josezv está desconectado *Novato Avanzado*
    Fecha de ingreso
    11 sep, 08
    Mensajes
    34

    Re: Transformers 3: [3D SBS][HDTV 1080p][AC3(Castellano)(Latino);True-HD(ENG)][SUbs]

    Cita Iniciado por Ch4m4k0 Ver mensaje




    En esta tercera entrega de la saga Transformers, los Autobots y los Decepticons se ven envueltos en una peligrosa carrera espacial en la Tierra entre los EE.UU. y Rusia, donde un acontecimiento amenaza con provocar una guerra tan grande que ni los propios transformers puede que sean capaces de salvar nuestro planeta. Y una vez más, como casi siempre, Sam Witwicky se encuentra involuntariamente en medio del conflicto.



    TÍTULO ORIGINAL Transformers: Dark of the Moon (Transformers 3)
    AÑO 2011
    DURACIÓN 157 min. Trailers/Vídeos
    [b]PAÍS [Estados Unidos] Sección visual
    DIRECTOR Michael Bay
    GUIÓN Ehren Kruger
    MÚSICA Steve Jablonsky
    FOTOGRAFÍA Amir M. Mokri
    REPARTO Shia LaBeouf, Rosie Huntington-Whiteley, John Malkovich, Josh Duhamel, Patrick Dempsey, John Turturro, Frances McDormand, Ken Jeong, Peter Cullen, Tyrese Gibson, Kevin Dunn, Alan Tudyk, Lester Speight
    PRODUCTORA DreamWorks SKG / Paramount Pictures / Hasbro
    GÉNERO Ciencia ficción. Acción | Secuela. 3-D. Robots. Extraterrestres



    Código:
    General
    Format                                   : Matroska
    Format version                           : Version 2
    File size                                : 15.2 GiB
    Duration                                 : 2h 34mn
    Overall bit rate mode                    : Variable
    Overall bit rate                         : 14.1 Mbps
    Movie name                               : Chamako - Transformers: El lado oscuro de la Luna 2011 1080p 3D
    Encoded date                             : UTC 2012-01-03 23:36:41
    Writing application                      : mkvmerge v5.2.0 ('I can't explain') built on Dec 18 2011 18:12:03
    Writing library                          : libebml v1.2.3 + libmatroska v1.3.0
    
    Video
    ID                                       : 1
    Format                                   : AVC
    Format/Info                              : Advanced Video Codec
    Format profile                           : High@L4.1
    Format settings, CABAC                   : Yes
    Format settings, ReFrames                : 4 frames
    Muxing mode                              : Header stripping
    Codec ID                                 : V_MPEG4/ISO/AVC
    Duration                                 : 2h 34mn
    Width                                    : 1 920 pixels
    Height                                   : 1 080 pixels
    Display aspect ratio                     : 16:9
    Frame rate                               : 23.976 fps
    Color space                              : YUV
    Chroma subsampling                       : 4:2:0
    Bit depth                                : 8 bits
    Scan type                                : Progressive
    Title                                    : Transformers: El lado oscuro de la Luna 2011 1080p 3D HDTV - Chamako
    Writing library                          : x264 core 120 r2120 0c7dab9
    Encoding settings                        : cabac=1 / ref=4 / deblock=1:-3:-3 / analyse=0x3:0x113 / me=umh / subme=7 / psy=1 / psy_rd=1.00:0.15 / mixed_ref=1 / me_range=16 / chroma_me=1 / trellis=1 / 8x8dct=1 / cqm=0 / deadzone=21,11 / fast_pskip=1 / chroma_qp_offset=-3 / threads=18 / sliced_threads=0 / nr=0 / decimate=1 / interlaced=0 / bluray_compat=0 / constrained_intra=0 / bframes=3 / b_pyramid=2 / b_adapt=1 / b_bias=0 / direct=3 / weightb=1 / open_gop=0 / weightp=2 / keyint=250 / keyint_min=23 / scenecut=40 / intra_refresh=0 / rc_lookahead=40 / rc=crf / mbtree=1 / crf=18.0 / qcomp=0.60 / qpmin=10 / qpmax=69 / qpstep=4 / ip_ratio=1.40 / aq=1:1.00
    Language                                 : Spanish
    Default                                  : No
    Forced                                   : No
    
    Audio #1
    ID                                       : 2
    Format                                   : AC-3
    Format/Info                              : Audio Coding 3
    Mode extension                           : CM (complete main)
    Muxing mode                              : Header stripping
    Codec ID                                 : A_AC3
    Duration                                 : 2h 34mn
    Bit rate mode                            : Constant
    Bit rate                                 : 640 Kbps
    Channel(s)                               : 6 channels
    Channel positions                        : Front: L C R, Side: L R, LFE
    Sampling rate                            : 48.0 KHz
    Bit depth                                : 16 bits
    Compression mode                         : Lossy
    Delay relative to video                  : 12ms
    Stream size                              : 707 MiB (5%)
    Title                                    : Castellano AC3
    Language                                 : Spanish
    Default                                  : No
    Forced                                   : No
    
    Audio #2
    ID                                       : 3
    Format                                   : AC-3
    Format/Info                              : Audio Coding 3
    Mode extension                           : CM (complete main)
    Muxing mode                              : Header stripping
    Codec ID                                 : A_AC3
    Duration                                 : 2h 34mn
    Bit rate mode                            : Constant
    Bit rate                                 : 640 Kbps
    Channel(s)                               : 6 channels
    Channel positions                        : Front: L C R, Side: L R, LFE
    Sampling rate                            : 48.0 KHz
    Bit depth                                : 16 bits
    Compression mode                         : Lossy
    Delay relative to video                  : 12ms
    Stream size                              : 707 MiB (5%)
    Title                                    : Latino AC3
    Language                                 : Spanish
    Default                                  : Yes
    Forced                                   : Yes
    
    Audio #3
    ID                                       : 4
    Format                                   : TrueHD
    Codec ID                                 : A_TRUEHD
    Duration                                 : 2h 34mn
    Bit rate mode                            : Variable
    Maximum bit rate                         : 6 048 Kbps
    Channel(s)                               : 8 channels
    Channel positions                        : Front: L C R, Side: L R, Back: L R, LFE
    Sampling rate                            : 48.0 KHz
    Compression mode                         : Lossless
    Title                                    : English True HD
    Language                                 : English
    Default                                  : No
    Forced                                   : No
    
    Text #1
    ID                                       : 5
    Format                                   : VobSub
    Muxing mode                              : zlib
    Codec ID                                 : S_VOBSUB
    Codec ID/Info                            : The same subtitle format used on DVDs
    Title                                    : Subtitulos Castellano 3D Forzados
    Language                                 : Spanish
    Default                                  : Yes
    Forced                                   : No
    
    Text #2
    ID                                       : 6
    Format                                   : UTF-8
    Codec ID                                 : S_TEXT/UTF8
    Codec ID/Info                            : UTF-8 Plain Text
    Title                                    : Subtitulos Castellano Completos
    Language                                 : Spanish
    Default                                  : No
    Forced                                   : No
    
    Text #3
    ID                                       : 7
    Format                                   : PGS
    Muxing mode                              : zlib
    Codec ID                                 : S_HDMV/PGS
    Codec ID/Info                            : The same subtitle format used on BDs/HD-DVDs
    Title                                    : Subtitulos Ingles Completos
    Language                                 : English
    Default                                  : No
    Forced                                   : No
    
    Text #4
    ID                                       : 8
    Format                                   : PGS
    Muxing mode                              : zlib
    Codec ID                                 : S_HDMV/PGS
    Codec ID/Info                            : The same subtitle format used on BDs/HD-DVDs
    Title                                    : Subtitulos Frances Completos
    Language                                 : French
    Default                                  : No
    Forced                                   : No
    
    Text #5
    ID                                       : 9
    Format                                   : PGS
    Muxing mode                              : zlib
    Codec ID                                 : S_HDMV/PGS
    Codec ID/Info                            : The same subtitle format used on BDs/HD-DVDs
    Title                                    : Subtitulos Portugues Completos








    Instrucciones de Descarga

    Añadir el link al Jdownloader, y empieza a descargar del host que mas te agrade

    35 Partes Intercambiables + 2 Archivos REV


    hidden content may not be quoted
    CONTRASEÑA: Chamako
    LA C "Mayuscula" lo demás minúscula, no copiar y pegar, escribir manualmente

    Si Algun link cae solo enviame un MP con el link del post y lo resubiré

    acbsdkjncbkbdkvnkncvicnOIWND,XC NLONDC

  10. xRoddyx está desconectado *Novato reciente*
    Fecha de ingreso
    27 oct, 12
    Mensajes
    0

    Re: Transformers 3: [3D SBS][HDTV 1080p][AC3(Castellano)(Latino);True-HD(ENG)][SUbs]

    Graciass!!!

  11. jordan3326 está desconectado *Novato reciente*
    Fecha de ingreso
    23 ago, 10
    Mensajes
    3

    Re: Transformers 3: [3D SBS][HDTV 1080p][AC3(Castellano)(Latino);True-HD(ENG)][SUbs]

    grasss!!!!!!!!!!!!

  12. rikardo_cn está desconectado *Novato reciente*
    Fecha de ingreso
    08 mar, 12
    Mensajes
    4

    Re: Transformers 3: [3D SBS][HDTV 1080p][AC3(Castellano)(Latino);True-HD(ENG)][SUbs]

    gracias la andaba buscando

  13. thecrapula está desconectado *Novato reciente*
    Fecha de ingreso
    14 ago, 09
    Mensajes
    13

    Re: Transformers 3: [3D SBS][HDTV 1080p][AC3(Castellano)(Latino);True-HD(ENG)][SUbs]

    espero que sea un buen aporte.....gracias de todas maneras
    lalito743 likes this.

Temas similares

  1. Transformers 3 (2011) [Bluray-Rip][1080P][Dual Español Latino 5.1 /Ingles][Subs.Esp]
    Por Ch4m4k0 en el foro Peliculas en HD-DVD, BluRay, HDTV Gratis
    Respuestas: 69
    Último mensaje: 15/07/2012, 15:53
  2. Transformers 3 BDRemux 1080p Castellano AC3 5.1/Ingles True-HD Sub Forz 2011[35.2GB]
    Por Cadagoto en el foro Peliculas en HD-DVD, BluRay, HDTV Gratis
    Respuestas: 9
    Último mensaje: 24/02/2012, 04:12
  3. Transformers: El lado oscuro de la Luna [2011][1080p];AC3(es-Es)(Lat);True-HD(ENG)
    Por daishix en el foro Peliculas en HD-DVD, BluRay, HDTV Gratis
    Respuestas: 0
    Último mensaje: 15/11/2011, 14:28