Resultados 1 al 3 de 3
Like Tree1Likes
  • 1 Post By lagartish

CreepShow (1982)[Comedia negra,peli de culto][Bdrip.m-720p.Dual.AC3.subs]


Descargar CreepShow (1982)[Comedia negra,peli de culto][Bdrip.m-720p.Dual.AC3.subs] Gratis 1 link Full CreepShow (1982)[Comedia negra,peli de culto][Bdrip.m-720p.Dual.AC3.subs] por Mediafire con Crack, Serial, KeyGen Full Torrent

  1. Avatar de lagartish
    lagartish está desconectado *Dios del FORO*
    Fecha de ingreso
    17 abr, 10
    Mensajes
    1,207

    CreepShow (1982)[Comedia negra,peli de culto][Bdrip.m-720p.Dual.AC3.subs]



    TÍTULO ORIGINAL Creepshow
    AÑO 1982
    DURACIÓN 120 min.
    PAÍS
    DIRECTOR George A. Romero
    GUIÓN Stephen King
    MÚSICA John Harrison
    FOTOGRAFÍA Michael Gornick
    REPARTO Hal Holbrook, Leslie Nielsen, Adrienne Barbeau, Fritz Weaver, Viveca Lindfors, Carrie Nye, E.G. Marshall, Ed Harris, Ted Danson, Stephen King, Tom Savini
    PRODUCTORA Warner Bros. Pictures
    GÉNERO Terror. Comedia | Sobrenatural. Comedia negra. Zombis. Monstruos. Película de culto. Comedia de terror. Película de episodios
    SINOPSIS Cinco historias de terror creadas por Stephen King, enmarcadas dentro de las páginas de un cómic que un insensible padre le ha tirado a su hijo a la basura. (FILMAFFINITY)


    Mediainfo:
    Código:
    Complete name : Creepshow.Bdrip.m-720p.Dual.x.lagartish.mkv 
    Format : Matroska 
    File size : 2.93 GiB 
    Duration : 2h 0mn 
    Overall bit rate : 3 484 Kbps 
    Movie name : CreepShow x lagartish 
    Encoded date : UTC 2011-12-27 19:23:03 
    Writing application : mkvmerge v4.8.0 ('I Got The...') creado el May 23 2011 22:30:05 
    Writing library : libebml v1.2.0 + libmatroska v1.1.0 
    Video
    ID : 1 
    Format : AVC 
    Format/Info : Advanced Video Codec 
    Format profile : High@L4.1 
    Format settings, CABAC : Yes 
    Format settings, ReFrames : 5 frames 
    Codec ID : V_MPEG4/ISO/AVC 
    Duration : 2h 0mn 
    Bit rate : 2 650 Kbps 
    Width : 1 280 pixels 
    Height : 720 pixels 
    Display aspect ratio : 16:9 
    Frame rate : 23.976 fps 
    Color space : YUV 
    Chroma subsampling : 4:2:0 
    Bit depth : 8 bits 
    Scan type : Progressive 
    Bits/(Pixel*Frame) : 0.120 
    Stream size : 2.17 GiB (74%) 
    Encoding settings : cabac=1 / ref=5 / deblock=1:-3:-3 / analyse=0x3:0x133 / me=umh / subme=9 / psy=1 / psy_rd=1.00:0.00 / mixed_ref=1 / me_range=16 / chroma_me=1 / trellis=2 / 8x8dct=1 / cqm=0 / deadzone=21,11 / fast_pskip=1 / chroma_qp_offset=-2 / threads=3 / sliced_threads=0 / nr=0 / decimate=0 / interlaced=0 / constrained_intra=0 / bframes=3 / b_pyramid=2 / b_adapt=2 / b_bias=0 / direct=3 / weightb=1 / open_gop=0 / weightp=1 / keyint=250 / keyint_min=23 / scenecut=40 / intra_refresh=0 / rc_lookahead=40 / rc=2pass / mbtree=1 / bitrate=2650 / ratetol=1.0 / qcomp=0.60 / qpmin=0 / qpmax=69 / qpstep=4 / cplxblur=20.0 / qblur=0.5 / vbv_maxrate=50000 / vbv_bufsize=50000 / nal_hrd=none / ip_ratio=1.40 / aq=1:1.00 
    Language : English 
    Audio #1
    ID : 2 
    Format : AC-3 
    Format/Info : Audio Coding 3 
    Mode extension : CM (complete main) 
    Codec ID : A_AC3 
    Duration : 2h 0mn 
    Bit rate mode : Constant 
    Bit rate : 384 Kbps 
    Channel(s) : 2 channels 
    Channel positions : Front: L R 
    Sampling rate : 48.0 KHz 
    Bit depth : 16 bits 
    Compression mode : Lossy 
    Stream size : 331 MiB (11%) 
    Language : Spanish 
    Audio #2
    ID : 3 
    Format : AC-3 
    Format/Info : Audio Coding 3 
    Mode extension : CM (complete main) 
    Codec ID : A_AC3 
    Duration : 2h 0mn 
    Bit rate mode : Constant 
    Bit rate : 448 Kbps 
    Channel(s) : 2 channels 
    Channel positions : Front: L R 
    Sampling rate : 48.0 KHz 
    Bit depth : 16 bits 
    Compression mode : Lossy 
    Stream size : 386 MiB (13%) 
    Language : English 
    Text #1
    ID : 4 
    Format : UTF-8 
    Codec ID : S_TEXT/UTF8 
    Codec ID/Info : UTF-8 Plain Text 
    Text #2
    ID : 5 
    Format : UTF-8 
    Codec ID : S_TEXT/UTF8 
    Codec ID/Info : UTF-8 Plain Text 
    Language : Spanish 
    Text #3
    ID : 6 
    Format : UTF-8 
    Codec ID : S_TEXT/UTF8 
    Codec ID/Info : UTF-8 Plain Text 
    Language : English
    Contenedor: mkv
    Tamaño: 2.93 Gb
    Tasa de Bits total 3484 kbps
    Resolucion: 1280x720
    Audio 1: AC3 384 kbps castellano
    Audio 2: AC3 448 kbps ingles
    Links: 9 de 299 Mb y 1 de 290 Mb
    Archivos de recuperacion: 3 rev
    Subs: Español e ingles completos

    Archivos intercambiables

    Descarga por Putlocker, Uploaded.to, Freakshare, Rapidgator, Bitshare, Muchshare, Cyberlocker, tusfiles

    Contenido Oculto Este post contiene información oculta, debes contestar el post o hacer click en el botón 'Gracias' para ver el contenido.
    Última edición por lagartish; 04/04/2013 a las 12:43
    tenma333 likes this.



  2. xitama está desconectado *Novato reciente*
    Fecha de ingreso
    21 dic, 10
    Mensajes
    17

    Re: CreepShow (1982)[Comedia negra,peli de culto][Bdrip.m-720p.Dual.AC3.subs]

    graciassssss

  3. Avatar de lagartish
    lagartish está desconectado *Dios del FORO*
    Fecha de ingreso
    17 abr, 10
    Mensajes
    1,207

Temas similares

  1. [MU]Blade Runner. Dir. Cut (1982)[Pelicula de culto][Bdrip.m-720p][AC3.Dual.subs]
    Por lagartish en el foro Peliculas en HD-DVD, BluRay, HDTV Gratis
    Respuestas: 55
    Último mensaje: 09/04/2014, 11:56
  2. Snatch, Cerdos y Diamantes(2000)[Comedia Negra, Crimen][Bdrip.m-720p.Dual.AC3.subs]
    Por lagartish en el foro Peliculas en HD-DVD, BluRay, HDTV Gratis
    Respuestas: 16
    Último mensaje: 29/01/2013, 20:41
  3. [MU]Dune(1984)[Sc-Fi, Pelicula de culto][Bdrip.m-720p.Dual.AC3.subs]
    Por lagartish en el foro Peliculas en HD-DVD, BluRay, HDTV Gratis
    Respuestas: 13
    Último mensaje: 09/11/2012, 23:04
  4. Quemar depues de leer (2008)[Comedia negra][Bdrip.m-720p.Dual.AC3.subs]
    Por lagartish en el foro Peliculas en HD-DVD, BluRay, HDTV Gratis
    Respuestas: 3
    Último mensaje: 01/10/2012, 18:50
  5. [MU+Phillip Morris ¡Te quiero!(2009)[Comedia negra][Bdrip.m-720p.Dual.AC3.subs]
    Por lagartish en el foro Peliculas en HD-DVD, BluRay, HDTV Gratis
    Respuestas: 16
    Último mensaje: 18/09/2011, 10:15